<?xml version="1.0" standalone="no"?>
<!DOCTYPE svg PUBLIC "-//W3C//DTD SVG 1.1//EN" "http://www.w3.org/Graphics/SVG/1.1/DTD/svg11.dtd" >
<svg xmlns="http://www.w3.org/2000/svg" xmlns:xlink="http://www.w3.org/1999/xlink" version="1.1">
<metadata>
Created by FontForge 20170924 at Mon Nov 29 11:52:57 2004
 By www-data
Copyright 2004 Process Type Foundry. All rights reserved.
</metadata>
<defs>
<font id="Klavika-RegularItalic" horiz-adv-x="525" >
  <font-face 
    font-family="Klavika Rg"
    font-weight="400"
    font-style="italic"
    font-stretch="normal"
    units-per-em="1000"
    panose-1="2 0 5 6 9 0 0 2 0 4"
    ascent="750"
    descent="-250"
    x-height="487"
    cap-height="666"
    bbox="-79 -259 1151 960"
    underline-thickness="20"
    underline-position="-133"
    stemh="70"
    stemv="82"
    unicode-range="U+0020-FB02"
  />
<missing-glyph horiz-adv-x="648" 
d="M115 0v666h463v-666h-463zM532 619h-344l344 -535v535zM161 581v-535h343z" />
    <glyph glyph-name="fi" unicode="fi" horiz-adv-x="590" 
d="M383 0l74 420h-236l-81 -461c-14 -77 -39 -114 -99 -166l-50 51c42 39 59 70 70 134l78 442h-85l12 67h85l15 85c16 92 67 134 166 134c55 0 108 -11 160 -28l-17 -63c-44 14 -97 22 -140 22c-55 0 -79 -18 -87 -65l-15 -85h277l42 6l-87 -493h-82z" />
    <glyph glyph-name="fl" unicode="fl" horiz-adv-x="594" 
d="M375 487l-18 -69h-136l-81 -459c-14 -77 -39 -114 -99 -166l-50 51c42 39 59 70 70 134l78 440h-85l12 69h85l16 92c17 96 71 127 170 127c48 0 123 -8 171 -20l84 12l-123 -698h-82l109 620c-52 12 -116 18 -161 18c-60 0 -79 -19 -87 -66l-15 -85h142z" />
    <glyph glyph-name="f_f" unicode="ff" horiz-adv-x="698" 
d="M387 -207l-50 51c42 39 59 70 70 134l78 441h-264l-81 -460c-14 -77 -39 -114 -99 -166l-50 51c42 39 59 70 70 134l78 441h-85l12 68h85l15 85c16 92 59 134 152 134c35 0 71 -7 104 -20l-17 -63c-28 9 -57 14 -82 14c-49 0 -67 -18 -75 -65l-15 -85h264l15 85
c16 92 59 134 152 134c35 0 71 -7 104 -20l-17 -63c-28 9 -57 14 -82 14c-49 0 -67 -18 -75 -65l-15 -85h142l-17 -68h-137l-81 -460c-14 -77 -39 -114 -99 -166z" />
    <glyph glyph-name="f_f_i" unicode="ffi" horiz-adv-x="935" 
d="M496 487l15 85c16 92 67 134 166 134c60 0 105 -10 155 -27l-17 -63c-47 13 -93 21 -135 21c-55 0 -79 -18 -87 -65l-15 -85h277l42 6l-87 -493h-82l74 420h-236l-81 -461c-14 -77 -39 -114 -99 -166l-50 51c42 39 59 70 70 134l78 442h-263l-81 -461
c-14 -77 -39 -114 -99 -166l-50 51c42 39 59 70 70 134l78 442h-85l12 67h85l15 85c16 92 59 134 152 134c35 0 71 -7 104 -20l-17 -63c-28 9 -57 14 -82 14c-49 0 -67 -18 -75 -65l-15 -85h263z" />
    <glyph glyph-name="f_j" unicode="fj" horiz-adv-x="582" 
d="M377 -19l77 439h-233l-81 -461c-14 -77 -39 -114 -99 -166l-50 51c42 39 59 70 70 134l78 442h-85l12 67h85l15 85c16 92 67 134 166 134c60 0 107 -10 157 -27l-17 -63c-47 13 -98 21 -137 21c-55 0 -79 -18 -87 -65l-15 -85h274l42 6l-93 -526
c-10 -59 -18 -77 -147 -174l-42 58c88 70 101 80 110 130z" />
    <glyph glyph-name="f_f_j" unicode="ffj" horiz-adv-x="918" 
d="M713 -19l77 439h-233l-81 -461c-14 -77 -39 -114 -99 -166l-50 51c42 39 59 70 70 134l78 442h-254l-81 -461c-14 -77 -39 -114 -99 -166l-50 51c42 39 59 70 70 134l78 442h-85l12 67h85l15 85c16 92 59 134 152 134c35 0 71 -7 104 -20l-17 -63c-28 9 -57 14 -82 14
c-49 0 -67 -18 -75 -65l-15 -85h254l15 85c16 92 67 134 166 134c60 0 107 -10 157 -27l-17 -63c-47 13 -98 21 -137 21c-55 0 -79 -18 -87 -65l-15 -85h274l42 6l-93 -526c-10 -59 -18 -77 -147 -174l-42 58c88 70 101 80 110 130z" />
    <glyph glyph-name="f_f_l" unicode="ffl" horiz-adv-x="940" 
d="M497 487l16 92c17 96 71 127 170 127c48 0 123 -8 171 -20l84 12l-123 -698h-82l109 620c-52 12 -116 18 -161 18c-60 0 -79 -19 -87 -66l-15 -85h142l-18 -68h-136l-81 -460c-14 -77 -39 -114 -99 -166l-50 51c42 39 59 70 70 134l78 441h-264l-81 -460
c-14 -77 -39 -114 -99 -166l-50 51c42 39 59 70 70 134l78 441h-85l12 68h85l15 85c16 92 59 134 152 134c35 0 71 -7 104 -20l-17 -63c-28 9 -57 14 -82 14c-49 0 -67 -18 -75 -65l-15 -85h264z" />
    <glyph glyph-name=".notdef" horiz-adv-x="648" 
d="M115 0v666h463v-666h-463zM532 619h-344l344 -535v535zM161 581v-535h343z" />
    <glyph glyph-name="space" unicode=" " horiz-adv-x="215" 
 />
    <glyph glyph-name="exclam" unicode="!" horiz-adv-x="264" 
d="M144 190h-47l12 172l57 324h82l-57 -323zM43 0l19 110h85l-19 -110h-85z" />
    <glyph glyph-name="quotedbl" unicode="&#x22;" horiz-adv-x="363" 
d="M257 441l43 245h63l-43 -245h-63zM95 441l43 245h63l-43 -245h-63z" />
    <glyph glyph-name="numbersign" unicode="#" horiz-adv-x="703" 
d="M659 423h-115l-41 -189h116l-14 -61h-116l-37 -173h-66l37 173h-181l-37 -173h-66l37 173h-117l14 61h117l41 189h-117l13 61h118l36 162h65l-36 -162h182l36 162h65l-35 -162h115zM297 423l-41 -189h181l41 189h-181z" />
    <glyph glyph-name="dollar" unicode="$" horiz-adv-x="504" 
d="M148 -113l18 104c-48 3 -89 13 -137 35l20 66c50 -19 101 -30 154 -30c99 0 113 19 127 102c4 24 7 40 7 54c0 42 -23 55 -98 76c-103 29 -129 64 -129 119c0 22 4 47 9 77c22 127 52 160 186 165l19 104h71l-19 -105c40 -3 67 -8 104 -18l-15 -70c-52 12 -97 18 -139 18
c-109 0 -112 -19 -126 -97c-4 -25 -8 -43 -8 -58c0 -37 22 -47 97 -71c101 -31 131 -60 131 -123c0 -20 -3 -43 -8 -71c-20 -114 -45 -163 -174 -172l-19 -105h-71z" />
    <glyph glyph-name="percent" unicode="%" horiz-adv-x="841" 
d="M274 -10l-52 27l354 659l52 -27zM195 313c-91 0 -127 42 -127 102c0 11 1 22 3 33l18 102c15 86 53 126 167 126c86 0 129 -41 129 -104c0 -10 -2 -21 -3 -27l-19 -109c-13 -75 -50 -123 -168 -123zM299 448l17 97c1 5 2 15 2 21c0 34 -18 52 -70 52
c-61 0 -84 -19 -94 -73l-18 -102c-1 -7 -2 -15 -2 -22c0 -32 17 -50 70 -50c67 0 86 25 95 77zM591 -10c-91 0 -127 42 -127 102c0 11 1 22 3 33l18 102c15 86 53 126 167 126c86 0 129 -41 129 -104c0 -10 -2 -21 -3 -27l-19 -109c-13 -75 -50 -123 -168 -123zM695 125
l17 97c1 5 2 15 2 21c0 34 -18 52 -70 52c-61 0 -84 -19 -94 -73l-18 -102c-1 -7 -2 -15 -2 -22c0 -32 17 -50 70 -50c67 0 86 25 95 77z" />
    <glyph glyph-name="ampersand" unicode="&#x26;" horiz-adv-x="719" 
d="M442 381c0 -36 -14 -76 -57 -104h128c91 0 133 14 190 53l30 -51c-44 -38 -109 -66 -205 -67c-64 -128 -154 -222 -329 -222c-111 0 -157 45 -157 119c0 13 2 27 4 39l31 175c22 123 97 174 209 174c92 0 156 -43 156 -116zM206 59c117 0 184 54 240 153h-156l-16 65
c59 15 91 56 91 95c0 37 -31 57 -84 57c-61 0 -109 -27 -122 -100l-33 -187c-2 -11 -3 -20 -3 -28c0 -44 27 -55 83 -55z" />
    <glyph glyph-name="quotesingle" unicode="'" horiz-adv-x="201" 
d="M95 441l43 245h63l-43 -245h-63z" />
    <glyph glyph-name="parenleft" unicode="(" horiz-adv-x="303" 
d="M156 -154c-59 106 -87 216 -87 331c0 237 83 424 249 585l51 -47c-152 -168 -219 -323 -219 -536c0 -100 18 -190 73 -298z" />
    <glyph glyph-name="parenright" unicode=")" horiz-adv-x="303" 
d="M161 762c59 -106 87 -216 87 -331c0 -237 -83 -424 -249 -585l-51 47c155 167 219 323 219 536c0 100 -18 190 -73 298z" />
    <glyph glyph-name="asterisk" unicode="*" horiz-adv-x="470" 
d="M142 387l98 118h-140l8 43h145l-58 126l42 22l59 -126l101 127l35 -28l-100 -121h146l-7 -43h-146l60 -125l-43 -21l-60 128l-104 -129z" />
    <glyph glyph-name="plus" unicode="+" horiz-adv-x="524" 
d="M298 209v-170h-71v170h-167v68h167v170h71v-170h166v-68h-166z" />
    <glyph glyph-name="comma" unicode="," horiz-adv-x="255" 
d="M46 -121l-31 22l60 99h-32l19 110h85l-20 -114z" />
    <glyph glyph-name="hyphen" unicode="-" horiz-adv-x="370" 
d="M74 247l11 69h238l-12 -69h-237z" />
    <glyph glyph-name="period" unicode="." horiz-adv-x="256" 
d="M52 0l19 110h85l-19 -110h-85z" />
    <glyph glyph-name="slash" unicode="/" horiz-adv-x="437" 
d="M65 -117h-76l386 793h77z" />
    <glyph glyph-name="zero" unicode="0" horiz-adv-x="551" 
d="M228 -10c-129 0 -177 57 -177 136c0 12 1 27 3 38l57 324c22 124 84 168 234 168c111 0 178 -57 178 -146c0 -11 -1 -22 -3 -34l-55 -312c-20 -114 -65 -174 -237 -174zM384 171l53 300c2 12 4 24 4 34c0 51 -29 79 -109 79c-95 0 -127 -32 -141 -108l-55 -311
c-2 -11 -3 -24 -3 -34c0 -46 25 -69 108 -69c97 0 129 31 143 109z" />
    <glyph glyph-name="one" unicode="1" horiz-adv-x="347" 
d="M130 0l98 556l-142 -75l-30 64l194 101h76l-114 -646h-82z" />
    <glyph glyph-name="two" unicode="2" horiz-adv-x="486" 
d="M15 0l7 72c96 95 116 115 206 207c99 102 135 137 144 187l4 22c3 17 4 29 4 38c0 39 -22 57 -106 57c-47 0 -106 -9 -159 -23l-9 67c56 17 123 29 187 29c115 0 170 -46 170 -126c0 -13 -2 -24 -4 -37l-5 -27c-14 -76 -28 -94 -148 -216c-79 -81 -103 -106 -174 -178
h257l-12 -72h-362z" />
    <glyph glyph-name="three" unicode="3" horiz-adv-x="481" 
d="M182 -10c-52 0 -121 11 -170 31l19 65c39 -13 101 -25 152 -25c102 0 123 24 135 92l8 45c10 56 -14 91 -90 91h-132l12 71h134c63 0 96 30 104 77l12 69c11 60 -18 80 -100 80c-46 0 -99 -5 -139 -13l-7 66c42 10 109 17 161 17c135 0 183 -63 167 -151l-11 -63
c-11 -64 -31 -93 -98 -118c54 -11 79 -68 68 -130l-8 -46c-18 -104 -51 -158 -217 -158z" />
    <glyph glyph-name="four" unicode="4" horiz-adv-x="531" 
d="M396 164l-29 -164h-81l29 164h-302l7 79l347 403h113l-73 -414h94l-13 -68h-92zM385 565l-284 -333h225z" />
    <glyph glyph-name="five" unicode="5" horiz-adv-x="484" 
d="M181 -10c-44 0 -112 9 -166 28l17 67c50 -13 102 -23 157 -23c100 0 123 28 136 98l7 39c2 10 3 22 3 28c0 44 -21 61 -106 66c-36 2 -88 5 -143 7l61 346h337l-12 -72h-256l-36 -207c37 -2 66 -4 103 -7c82 -7 136 -43 136 -117c0 -12 -2 -27 -4 -38l-7 -40
c-21 -119 -56 -175 -227 -175z" />
    <glyph glyph-name="six" unicode="6" horiz-adv-x="510" 
d="M218 -10c-126 0 -168 51 -168 127c0 15 1 31 4 47l47 269c29 166 89 223 275 223c36 0 80 -4 121 -17l-15 -66c-37 9 -74 12 -100 12c-148 0 -179 -39 -199 -153l-15 -86c43 15 93 23 136 23c109 0 148 -42 148 -113c0 -14 -1 -30 -4 -46l-9 -52
c-18 -102 -57 -168 -221 -168zM356 154l11 61c2 13 4 24 4 33c0 38 -21 50 -86 50c-44 0 -88 -9 -130 -26l-20 -112c-2 -12 -3 -23 -3 -32c0 -46 26 -66 99 -66c82 0 113 23 125 92z" />
    <glyph glyph-name="seven" unicode="7" horiz-adv-x="437" 
d="M112 0h-87l361 575h-307l12 71h394l-12 -69z" />
    <glyph glyph-name="eight" unicode="8" horiz-adv-x="543" 
d="M228 -10c-125 0 -182 40 -182 120c0 12 2 25 4 38l6 33c14 78 57 118 155 150c-56 35 -87 72 -87 125c0 11 1 19 2 26l3 18c19 109 72 156 215 156c103 0 165 -49 165 -123c0 -9 -1 -17 -3 -28l-5 -29c-12 -68 -51 -119 -136 -147c70 -33 104 -68 104 -124
c0 -9 -1 -18 -3 -29l-6 -33c-20 -110 -67 -153 -232 -153zM420 471l6 33c1 7 2 14 2 20c0 40 -27 62 -96 62c-82 0 -113 -30 -122 -81l-5 -29c-1 -6 -2 -12 -2 -18c0 -40 29 -66 90 -96c76 31 118 59 127 109zM380 148l5 28c2 10 3 18 3 26c0 42 -29 56 -108 91
c-106 -40 -135 -61 -145 -116l-5 -29c-2 -11 -3 -22 -3 -29c0 -44 29 -59 113 -59c93 0 128 20 140 88z" />
    <glyph glyph-name="nine" unicode="9" horiz-adv-x="510" 
d="M316 656c118 0 168 -51 168 -127c0 -15 -1 -31 -4 -47l-47 -269c-29 -166 -83 -223 -275 -223c-36 0 -80 4 -121 17l15 66c37 -9 74 -12 100 -12c153 0 179 39 199 153l15 86c-43 -15 -93 -23 -136 -23c-109 0 -148 42 -148 113c0 14 1 30 4 46l9 52
c19 109 57 168 221 168zM178 492l-11 -61c-2 -13 -4 -24 -4 -33c0 -38 20 -50 86 -50c40 0 88 9 130 26l20 112c2 12 3 23 3 32c0 46 -26 66 -99 66c-82 0 -113 -23 -125 -92z" />
    <glyph glyph-name="colon" unicode=":" horiz-adv-x="260" 
d="M45 0l19 110h85l-19 -110h-85zM101 312l19 110h85l-19 -110h-85z" />
    <glyph glyph-name="semicolon" unicode=";" horiz-adv-x="260" 
d="M48 -121l-31 22l60 99h-32l19 110h85l-20 -114zM100 312l19 110h85l-19 -110h-85z" />
    <glyph glyph-name="less" unicode="&#x3c;" horiz-adv-x="554" 
d="M462 -10l-412 228v52l411 227l29 -54l-366 -199l367 -200z" />
    <glyph glyph-name="equal" unicode="=" horiz-adv-x="482" 
d="M65 305v59h367v-59h-367zM65 124v59h367v-59h-367z" />
    <glyph glyph-name="greater" unicode="&#x3e;" horiz-adv-x="554" 
d="M509 218l-412 -228l-29 54l367 200l-366 199l29 54l411 -227v-52z" />
    <glyph glyph-name="question" unicode="?" horiz-adv-x="475" 
d="M284 280c-39 -25 -48 -31 -85 -55l-38 60c51 34 65 43 122 82c64 44 71 60 85 138c4 22 7 46 7 59c0 47 -21 59 -104 59c-34 0 -91 -7 -134 -16l-8 71c51 12 109 18 159 18c120 0 169 -39 169 -119c0 -19 -3 -44 -7 -68c-22 -124 -28 -141 -166 -229zM110 0l19 110h85
l-19 -110h-85z" />
    <glyph glyph-name="at" unicode="@" horiz-adv-x="743" 
d="M519 203c-25 0 -56 9 -71 28c-32 -20 -67 -28 -108 -28c-61 0 -78 43 -68 92c7 43 19 108 19 108c11 61 42 87 116 87c43 0 91 -14 120 -29l-36 -207c12 -2 17 -2 26 -2c106 0 143 90 143 194c0 116 -76 175 -211 175c-202 0 -319 -135 -319 -353
c0 -136 75 -222 247 -222c68 0 141 16 205 44l12 -52c-61 -31 -139 -48 -221 -48c-202 0 -305 111 -305 275c0 248 137 411 385 411c180 0 267 -100 267 -225c0 -142 -65 -248 -201 -248zM400 441c-37 0 -50 -13 -55 -44l-18 -102c-5 -28 -3 -42 34 -42c23 0 52 8 79 25
c9 51 27 154 27 154c-22 6 -48 9 -67 9z" />
    <glyph glyph-name="A" unicode="A" horiz-adv-x="621" 
d="M465 0l-24 162h-278l-83 -162h-88l335 666h120l104 -666h-86zM379 608l-182 -374h233z" />
    <glyph glyph-name="B" unicode="B" horiz-adv-x="580" 
d="M314 0h-274l118 666h257c95 0 138 -40 138 -104c0 -8 -1 -18 -3 -29l-15 -84c-10 -58 -31 -86 -92 -107c52 -7 77 -48 77 -97c0 -8 -1 -18 -3 -29l-14 -79c-16 -92 -66 -137 -189 -137zM452 454l13 74c1 7 2 13 2 19c0 33 -20 48 -65 48h-173l-39 -221h160
c62 0 92 23 102 80zM421 148l13 73c1 6 2 14 2 20c0 40 -25 63 -83 63h-175l-41 -233h181c67 0 94 26 103 77z" />
    <glyph glyph-name="C" unicode="C" horiz-adv-x="516" 
d="M250 -10c-141 0 -196 62 -196 154c0 15 2 31 5 49l51 289c25 139 97 194 258 194c51 0 115 -7 166 -21l-17 -72c-51 11 -112 18 -156 18c-109 0 -151 -30 -169 -130l-49 -279c-3 -16 -4 -30 -4 -42c0 -60 33 -85 128 -85c44 0 106 6 159 16l3 -72
c-52 -11 -123 -19 -179 -19z" />
    <glyph glyph-name="D" unicode="D" horiz-adv-x="593" 
d="M278 0h-238l117 666h224c138 0 188 -66 188 -154c0 -15 -1 -30 -4 -46l-51 -290c-21 -120 -72 -176 -236 -176zM433 192l48 273c2 13 4 25 4 41c0 53 -28 85 -115 85h-142l-91 -516h141c108 0 140 32 155 117z" />
    <glyph glyph-name="E" unicode="E" horiz-adv-x="534" 
d="M40 0l117 666h388l-14 -75h-302l-37 -213h280l-13 -74h-281l-41 -229h304l-13 -75h-388z" />
    <glyph glyph-name="F" unicode="F" horiz-adv-x="514" 
d="M228 591l-40 -226h285l-13 -74h-285l-51 -291h-84l117 666h391l-13 -75h-307z" />
    <glyph glyph-name="G" unicode="G" horiz-adv-x="582" 
d="M248 -10c-140 0 -194 61 -194 151c0 13 1 30 4 47l52 294c23 130 81 194 259 194c55 0 127 -8 186 -26l-16 -71c-58 13 -129 21 -180 21c-113 0 -150 -34 -167 -128l-48 -274c-4 -21 -5 -38 -5 -50c0 -55 28 -83 122 -83c38 0 82 4 133 15l40 222h81l-48 -277
c-67 -24 -146 -35 -219 -35z" />
    <glyph glyph-name="H" unicode="H" horiz-adv-x="628" 
d="M414 0l53 303h-290l-53 -303h-84l117 666h84l-51 -289h290l51 289h84l-117 -666h-84z" />
    <glyph glyph-name="I" unicode="I" horiz-adv-x="264" 
d="M45 0l117 666h84l-117 -666h-84z" />
    <glyph glyph-name="J" unicode="J" horiz-adv-x="254" 
d="M241 666l-120 -682c-12 -69 -36 -87 -156 -182l-44 61c103 79 111 91 119 136l117 667h84z" />
    <glyph glyph-name="K" unicode="K" horiz-adv-x="577" 
d="M405 0l-199 339l287 327h106l-300 -329l199 -337h-93zM40 0l117 666h84l-117 -666h-84z" />
    <glyph glyph-name="L" unicode="L" horiz-adv-x="499" 
d="M40 0l118 666h84l-105 -591h290l-13 -75h-374z" />
    <glyph glyph-name="M" unicode="M" horiz-adv-x="800" 
d="M595 0l77 537l-246 -451h-113l-86 451l-111 -537h-84l143 666h102l103 -518l282 518h108l-92 -666h-83z" />
    <glyph glyph-name="N" unicode="N" horiz-adv-x="657" 
d="M413 0l-191 568l-100 -568h-82l117 666h112l192 -576l101 576h82l-117 -666h-114z" />
    <glyph glyph-name="O" unicode="O" horiz-adv-x="619" 
d="M263 -10c-146 0 -207 69 -207 165c0 11 1 27 4 43l48 273c25 140 98 205 272 205c136 0 210 -73 210 -173c0 -12 -2 -26 -4 -37l-49 -279c-21 -119 -88 -197 -274 -197zM455 194l48 273c2 12 4 24 4 36c0 62 -38 99 -136 99c-113 0 -163 -39 -180 -135l-47 -268
c-3 -17 -4 -29 -4 -39c0 -59 33 -96 136 -96c116 0 164 47 179 130z" />
    <glyph glyph-name="P" unicode="P" horiz-adv-x="558" 
d="M318 239h-152l-42 -239h-84l117 666h234c121 0 172 -49 172 -130c0 -13 -1 -25 -4 -42l-16 -92c-18 -106 -66 -163 -225 -163zM460 408l16 91c2 11 3 20 3 29c0 46 -28 63 -95 63h-156l-49 -278h155c86 0 114 28 126 95z" />
    <glyph glyph-name="Q" unicode="Q" horiz-adv-x="619" 
d="M428 -106l-15 -66c-84 18 -162 30 -264 35l12 65c97 -4 185 -16 267 -34zM263 -10c-146 0 -207 69 -207 165c0 11 1 27 4 43l48 273c25 140 98 205 272 205c136 0 210 -73 210 -173c0 -12 -2 -26 -4 -37l-49 -279c-21 -119 -88 -197 -274 -197zM455 194l48 273
c2 12 4 24 4 36c0 62 -38 99 -136 99c-113 0 -163 -39 -180 -135l-47 -268c-3 -17 -4 -29 -4 -39c0 -59 33 -96 136 -96c116 0 164 47 179 130z" />
    <glyph glyph-name="R" unicode="R" horiz-adv-x="627" 
d="M458 0l-124 242h-167l-43 -242h-84l118 666h238c125 0 176 -50 176 -131c0 -11 -1 -25 -3 -36l-17 -96c-14 -80 -41 -126 -132 -150l130 -253h-92zM469 409l16 90c2 11 3 20 3 28c0 48 -30 64 -98 64h-162l-48 -275h162c82 0 115 24 127 93z" />
    <glyph glyph-name="S" unicode="S" horiz-adv-x="534" 
d="M214 -10c-57 0 -135 14 -191 37l19 67c62 -19 123 -31 180 -31c107 0 135 29 149 109c4 22 7 39 7 52c0 42 -26 53 -123 78c-116 30 -151 67 -151 137c0 20 3 42 7 67c24 135 78 170 237 170c50 0 123 -9 175 -23l-15 -71c-56 13 -124 20 -165 20
c-113 0 -134 -18 -148 -98c-4 -23 -7 -43 -7 -55c0 -42 25 -54 117 -79c123 -33 158 -65 158 -131c0 -17 -3 -42 -8 -68c-21 -121 -60 -181 -241 -181z" />
    <glyph glyph-name="T" unicode="T" 
d="M364 591l-104 -591h-84l103 591h-197l13 75h480l-13 -75h-198z" />
    <glyph glyph-name="U" unicode="U" horiz-adv-x="631" 
d="M271 -10c-142 0 -206 69 -206 163c0 10 1 24 4 40l83 473h84l-83 -473c-2 -12 -3 -27 -3 -37c0 -61 37 -92 132 -92c112 0 159 49 174 134l83 468h84l-84 -478c-20 -115 -83 -198 -268 -198z" />
    <glyph glyph-name="V" unicode="V" horiz-adv-x="588" 
d="M310 0h-118l-97 666h81l84 -593l282 593h88z" />
    <glyph glyph-name="W" unicode="W" horiz-adv-x="906" 
d="M670 0h-122l-42 597l-237 -597h-116l-61 666h79l50 -590l241 590h113l46 -590l240 590h85z" />
    <glyph glyph-name="X" unicode="X" horiz-adv-x="590" 
d="M-10 0l274 341l-149 325h88l120 -264l208 264h99l-271 -334l155 -332h-89l-124 266l-215 -266h-96z" />
    <glyph glyph-name="Y" unicode="Y" horiz-adv-x="535" 
d="M298 198l-35 -198h-84l36 205l-138 461h81l113 -376l237 376h95z" />
    <glyph glyph-name="Z" unicode="Z" horiz-adv-x="570" 
d="M49 0l-2 73l408 519h-330l13 74h412v-73l-408 -520h334l-12 -73h-415z" />
    <glyph glyph-name="bracketleft" unicode="[" horiz-adv-x="307" 
d="M28 -126l162 916h191l-12 -70h-111l-136 -776h109l-12 -70h-191z" />
    <glyph glyph-name="backslash" unicode="\" horiz-adv-x="430" 
d="M240 -117l-107 793h70l107 -793h-70z" />
    <glyph glyph-name="bracketright" unicode="]" horiz-adv-x="305" 
d="M305 790l-162 -916h-191l12 70h111l136 776h-109l12 70h191z" />
    <glyph glyph-name="asciicircum" unicode="^" horiz-adv-x="460" 
d="M373 378l-85 240l-165 -242l-53 39l189 271h72l107 -285z" />
    <glyph glyph-name="underscore" unicode="_" horiz-adv-x="429" 
d="M-1 -42v32h431v-32h-431z" />
    <glyph glyph-name="grave" unicode="`" horiz-adv-x="304" 
d="M242 550c-52 32 -83 56 -117 87l43 51c33 -32 64 -57 111 -90z" />
    <glyph glyph-name="a" unicode="a" horiz-adv-x="513" 
d="M470 464l-82 -464h-68l3 59c-54 -48 -120 -69 -182 -69c-75 0 -103 41 -103 97c0 12 2 25 4 38l34 193c21 118 65 179 219 179c60 0 127 -15 175 -33zM332 146l47 268c-26 7 -60 12 -94 12c-75 0 -112 -23 -129 -119l-31 -176c-2 -12 -4 -25 -4 -34c0 -23 10 -36 40 -36
c61 0 115 34 171 85z" />
    <glyph glyph-name="b" unicode="b" horiz-adv-x="512" 
d="M39 21l117 665l84 12l-47 -266c57 46 117 65 179 65c75 0 103 -41 103 -97c0 -12 -2 -25 -4 -38l-34 -191c-21 -118 -69 -181 -223 -181c-47 0 -118 11 -175 31zM178 347l-48 -273c26 -7 64 -13 98 -13c81 0 112 25 129 121l31 176c2 12 4 23 4 32c0 23 -10 36 -40 36
c-52 0 -122 -35 -174 -79z" />
    <glyph glyph-name="c" unicode="c" horiz-adv-x="407" 
d="M399 475l-18 -66c-34 11 -72 17 -104 17c-79 0 -109 -27 -126 -119l-32 -182c-1 -7 -2 -14 -2 -21c0 -31 16 -43 58 -43c44 0 102 14 151 33l11 -67c-49 -22 -108 -37 -171 -37c-92 0 -131 43 -131 109c0 7 1 21 4 38l32 181c24 135 81 179 210 179c36 0 83 -8 118 -22z
" />
    <glyph glyph-name="d" unicode="d" horiz-adv-x="517" 
d="M515 698l-123 -698h-72l5 59c-56 -48 -122 -69 -184 -69c-75 0 -102 41 -102 97c0 9 1 26 3 38l34 192c21 120 64 180 218 180c33 0 68 -5 101 -13l36 202zM335 142l48 272c-26 7 -71 12 -98 12c-87 0 -112 -24 -129 -120l-31 -177c-2 -12 -3 -22 -3 -31
c0 -24 9 -37 39 -37c58 0 119 36 174 81z" />
    <glyph glyph-name="e" unicode="e" horiz-adv-x="453" 
d="M134 180l-9 -50c-2 -11 -2 -18 -2 -22c0 -31 15 -49 67 -49c51 0 112 19 178 51l18 -61c-62 -34 -126 -59 -207 -59c-98 0 -137 46 -137 113c0 12 1 28 4 45l29 164c22 123 77 185 215 185c81 0 139 -38 139 -110c0 -82 -38 -123 -175 -169c-59 -20 -78 -25 -120 -38z
M237 283c81 24 115 55 115 95c0 32 -24 52 -68 52c-76 0 -111 -28 -125 -107l-12 -67c27 8 43 13 90 27z" />
    <glyph glyph-name="f" unicode="f" horiz-adv-x="352" 
d="M41 -207l-50 51c42 39 59 70 70 134l78 440h-85l12 69h85l15 85c16 92 59 134 152 134c35 0 71 -7 104 -20l-17 -63c-28 9 -57 14 -82 14c-49 0 -67 -18 -75 -65l-15 -85h142l-18 -69h-136l-81 -459c-14 -77 -39 -114 -99 -166z" />
    <glyph glyph-name="g" unicode="g" horiz-adv-x="517" 
d="M473 462l-94 -536c-18 -102 -59 -133 -171 -133c-64 0 -150 20 -200 41l17 62c67 -24 129 -35 186 -35c62 0 78 19 87 71l25 141c-54 -43 -117 -63 -179 -63c-75 0 -103 41 -103 97c0 12 2 25 4 38l31 171c21 118 69 181 223 181c47 0 122 -13 174 -35zM338 160l45 253
c-26 7 -64 13 -98 13c-81 0 -112 -25 -129 -121l-28 -156c-2 -12 -4 -23 -4 -32c0 -23 10 -36 40 -36c52 0 122 35 174 79z" />
    <glyph glyph-name="h" unicode="h" horiz-adv-x="530" 
d="M328 0l66 375c1 5 2 13 2 17c0 20 -10 27 -34 27c-49 0 -124 -36 -184 -73l-61 -346h-82l121 686l84 12l-47 -270c50 33 143 69 199 69c61 0 87 -33 87 -86c0 -11 -1 -26 -4 -42l-65 -369h-82z" />
    <glyph glyph-name="i" unicode="i" horiz-adv-x="242" 
d="M134 562l22 124l84 12l-22 -125zM35 0l85 481l84 12l-87 -493h-82z" />
    <glyph glyph-name="j" unicode="j" horiz-adv-x="237" 
d="M204 493l-93 -526c-10 -59 -18 -77 -147 -174l-42 58c90 68 101 80 110 130l88 500zM134 562l22 124l84 12l-22 -125z" />
    <glyph glyph-name="k" unicode="k" horiz-adv-x="476" 
d="M315 0l-128 246l207 249l79 -20l-198 -230l130 -245h-90zM35 0l121 686l84 12l-123 -698h-82z" />
    <glyph glyph-name="l" unicode="l" horiz-adv-x="242" 
d="M35 0l121 686l84 12l-123 -698h-82z" />
    <glyph glyph-name="m" unicode="m" horiz-adv-x="822" 
d="M620 0l66 375c1 6 2 13 2 17c0 20 -10 27 -34 27c-49 0 -130 -38 -183 -73l-61 -346h-82l66 375c1 6 2 13 2 17c0 20 -10 27 -34 27c-49 0 -124 -36 -184 -73l-61 -346h-82l85 481l72 12l-6 -69c48 34 148 73 206 73c55 0 82 -28 86 -73c53 37 148 73 206 73
c61 0 87 -33 87 -86c0 -11 -1 -26 -4 -42l-65 -369h-82z" />
    <glyph glyph-name="n" unicode="n" horiz-adv-x="530" 
d="M392 497c61 0 87 -33 87 -86c0 -11 -1 -26 -4 -42l-65 -369h-82l66 375c1 6 2 13 2 17c0 20 -10 27 -34 27c-49 0 -124 -36 -184 -73l-61 -346h-82l85 481l72 12l-6 -69c48 34 148 73 206 73z" />
    <glyph glyph-name="o" unicode="o" horiz-adv-x="506" 
d="M207 -10c-139 0 -185 80 -166 185l25 142c21 119 89 180 229 180c112 0 170 -62 170 -145c0 -7 0 -18 -3 -34l-27 -153c-19 -110 -77 -175 -228 -175zM354 170l26 148c2 11 3 21 3 29c0 53 -31 79 -100 79c-80 0 -122 -38 -135 -114l-25 -141c-11 -67 5 -110 96 -110
c84 0 122 36 135 109z" />
    <glyph glyph-name="p" unicode="p" horiz-adv-x="512" 
d="M-2 -209l123 696h72l-5 -59c57 50 122 69 184 69c75 0 102 -41 102 -97c0 -9 -1 -26 -3 -38l-34 -192c-21 -120 -64 -180 -218 -180c-33 0 -68 5 -101 13l-36 -200zM177 340l-47 -267c26 -7 71 -12 98 -12c87 0 112 24 129 120l31 177c2 12 3 22 3 31c0 24 -9 37 -39 37
c-63 0 -117 -36 -175 -86z" />
    <glyph glyph-name="q" unicode="q" horiz-adv-x="517" 
d="M473 462l-116 -659l-84 -12l47 264c-57 -46 -117 -65 -179 -65c-75 0 -103 41 -103 97c0 12 2 25 4 38l34 191c21 118 69 181 223 181c47 0 122 -13 174 -35zM335 140l48 273c-26 7 -64 13 -98 13c-81 0 -112 -25 -129 -121l-31 -176c-2 -12 -4 -23 -4 -32
c0 -23 10 -36 40 -36c52 0 122 35 174 79z" />
    <glyph glyph-name="r" unicode="r" horiz-adv-x="314" 
d="M323 497l3 -75c-55 -30 -106 -64 -152 -98l-57 -324h-82l85 481l73 12l-9 -80c39 32 88 62 139 84z" />
    <glyph glyph-name="s" unicode="s" horiz-adv-x="411" 
d="M162 -10c-44 0 -104 10 -143 27l17 64c39 -13 88 -22 130 -22c71 0 85 12 94 66c7 41 -4 57 -82 93c-100 46 -117 90 -105 161c14 84 51 118 174 118c44 0 101 -9 138 -21l-14 -65c-38 10 -91 17 -126 17c-70 0 -83 -10 -92 -59c-8 -46 6 -56 68 -89
c113 -60 134 -84 120 -160c-17 -91 -46 -130 -179 -130z" />
    <glyph glyph-name="t" unicode="t" horiz-adv-x="363" 
d="M165 -10c-60 0 -88 34 -88 78c0 4 0 11 2 22l58 329h-86l12 68h86l21 120l84 11l-23 -131h134l-14 -68h-132l-58 -328c-1 -6 -1 -8 -1 -11c0 -14 8 -21 28 -21c27 0 56 6 90 21l19 -57c-42 -21 -84 -33 -132 -33z" />
    <glyph glyph-name="u" unicode="u" horiz-adv-x="530" 
d="M199 493l-67 -381c-1 -6 -2 -13 -2 -17c0 -20 10 -27 34 -27c49 0 124 36 184 73l59 340l85 12l-87 -493h-70l5 63c-48 -34 -148 -73 -206 -73c-61 0 -87 33 -87 86c0 11 1 26 4 42l64 363z" />
    <glyph glyph-name="v" unicode="v" horiz-adv-x="434" 
d="M244 0h-114l-76 480l79 11l62 -426l138 288c15 31 18 48 18 74c0 14 -3 37 -8 54l79 12c4 -17 8 -40 8 -64c0 -26 -1 -53 -17 -85z" />
    <glyph glyph-name="w" unicode="w" horiz-adv-x="685" 
d="M342 387l-18 89l72 14l81 -423c37 97 51 139 95 263c12 35 13 65 13 84c0 21 -2 43 -8 65c27 5 49 9 75 14c4 -26 8 -51 8 -77c0 -35 -4 -70 -20 -115c-32 -88 -61 -167 -114 -301h-110l-55 285l-151 -285h-106c0 183 -8 355 -42 479l75 12c25 -121 39 -267 36 -425z" />
    <glyph glyph-name="x" unicode="x" horiz-adv-x="460" 
d="M-17 0l202 245l-111 236l77 12l89 -193l144 187h95l-204 -251l114 -236h-85l-84 173l-145 -173h-92z" />
    <glyph glyph-name="y" unicode="y" horiz-adv-x="434" 
d="M244 0c-54 -99 -101 -165 -232 -208l-22 63c78 28 124 66 169 145h-29l-76 480l79 11l62 -426l138 288c15 31 18 48 18 74c0 14 -3 37 -8 54l79 12c4 -17 8 -40 8 -64c0 -26 -1 -53 -17 -85z" />
    <glyph glyph-name="z" unicode="z" horiz-adv-x="452" 
d="M35 0l-5 65l296 356h-241l8 66h329v-65l-296 -356h239l-10 -66h-320z" />
    <glyph glyph-name="braceleft" unicode="{" horiz-adv-x="311" 
d="M74 291h-24l11 64h24c37 0 45 15 50 42l49 279c15 83 42 114 138 114h64l-13 -71h-61c-28 0 -41 -11 -46 -40l-44 -253c-5 -27 -9 -95 -84 -102c43 -9 53 -37 53 -65c0 -16 -4 -32 -6 -44l-44 -249c-1 -6 -1 -11 -1 -13c0 -19 10 -24 33 -24h61l-13 -71h-64
c-73 0 -99 31 -99 82c0 13 1 27 4 43l47 266c1 6 2 10 2 14c0 18 -10 28 -37 28z" />
    <glyph glyph-name="bar" unicode="|" horiz-adv-x="255" 
d="M115 -210v1000h55v-1000h-55z" />
    <glyph glyph-name="braceright" unicode="}" horiz-adv-x="312" 
d="M262 357h24l-11 -64h-24c-37 0 -45 -15 -50 -42l-49 -279c-15 -83 -42 -114 -138 -114h-64l13 71h61c28 0 41 11 46 40l44 253c5 27 9 95 84 102c-43 9 -53 37 -53 65c0 16 4 32 6 44l44 249c1 6 1 11 1 13c0 19 -10 24 -33 24h-61l13 71h64c73 0 99 -31 99 -82
c0 -13 -1 -27 -4 -43l-47 -266c-1 -6 -2 -10 -2 -14c0 -18 10 -28 37 -28z" />
    <glyph glyph-name="asciitilde" unicode="~" horiz-adv-x="506" 
d="M337 203c-35 0 -59 16 -88 37c-26 19 -47 42 -75 42c-45 0 -53 -16 -89 -82l-44 29c38 74 67 114 136 114c35 0 63 -22 89 -43c27 -22 46 -37 71 -37c45 0 56 33 82 83l47 -25c-27 -62 -56 -118 -129 -118z" />
    <glyph glyph-name="nbspace" unicode="&#xa0;" horiz-adv-x="215" 
 />
    <glyph glyph-name="exclamdown" unicode="&#xa1;" horiz-adv-x="265" 
d="M117 299h47l-12 -172l-57 -324h-82l57 323zM216 487l-19 -110h-85l19 110h85z" />
    <glyph glyph-name="cent" unicode="&#xa2;" horiz-adv-x="422" 
d="M153 -10l17 90c-84 3 -119 46 -119 109c0 7 1 21 4 38l32 181c21 121 70 169 173 177l17 92h65l-17 -92c30 -3 63 -10 90 -20l-18 -66c-34 11 -72 17 -104 17c-79 0 -109 -27 -126 -119l-32 -182c-1 -7 -2 -14 -2 -21c0 -31 16 -43 58 -43c44 0 102 14 151 33l11 -67
c-35 -16 -75 -28 -118 -34l-17 -93h-65z" />
    <glyph glyph-name="sterling" unicode="&#xa3;" horiz-adv-x="530" 
d="M39 0l12 70c92 54 144 117 144 195c0 12 -1 22 -3 36h-114l8 64h89c-16 39 -26 83 -26 119c0 113 58 172 206 172c48 0 114 -10 155 -23c-5 -21 -9 -43 -14 -65c-39 11 -97 17 -141 17c-79 0 -125 -14 -125 -103c0 -35 13 -85 27 -117h190l-10 -64h-165
c2 -12 3 -27 3 -38c0 -70 -47 -145 -117 -194h284l-12 -69h-391z" />
    <glyph glyph-name="currency" unicode="&#xa4;" horiz-adv-x="550" 
d="M529 537l-69 -66c6 -12 8 -27 8 -42c0 -9 -1 -20 -2 -26l-24 -138c-5 -27 -12 -53 -28 -74l52 -64l-55 -48l-56 68c-24 -10 -56 -14 -96 -14c-33 0 -59 5 -78 13l-65 -61l-49 50l61 57c-6 14 -9 29 -9 44c0 10 1 20 3 30l25 141c6 31 13 52 29 73l-51 63l55 48l55 -69
c24 10 56 15 95 15c34 0 61 -6 82 -18l70 66zM218 392l-20 -113c-2 -12 -3 -22 -3 -31c0 -31 16 -48 76 -48c67 0 89 22 99 78l20 114c2 10 3 19 3 26c0 35 -19 52 -75 52c-69 0 -90 -23 -100 -78z" />
    <glyph glyph-name="yen" unicode="&#xa5;" horiz-adv-x="535" 
d="M63 306l11 56h94l-84 284h81l106 -358l224 358h95l-185 -284h95l-10 -56h-122l-70 -108l-2 -10h174l-10 -54h-174l-23 -134h-84l23 134h-169l11 54h168l3 17l-30 101h-122z" />
    <glyph glyph-name="brokenbar" unicode="&#xa6;" horiz-adv-x="255" 
d="M115 374v416h55v-416h-55zM115 -210v416h55v-416h-55z" />
    <glyph glyph-name="section" unicode="&#xa7;" horiz-adv-x="548" 
d="M396 590c-45 13 -96 23 -134 23c-52 0 -67 -14 -74 -58c-7 -38 -10 -82 -10 -129c0 -126 20 -271 51 -413l-70 -13c-32 136 -54 293 -54 428c0 59 3 96 9 136c14 78 46 112 152 112c47 0 106 -13 145 -28zM159 -100c45 -13 96 -23 134 -23c52 0 67 14 74 58
c7 38 10 82 10 129c0 126 -20 271 -51 413l70 13c32 -136 54 -293 54 -428c0 -59 -3 -96 -9 -136c-14 -78 -46 -112 -152 -112c-47 0 -106 13 -145 28z" />
    <glyph glyph-name="dieresis" unicode="&#xa8;" horiz-adv-x="398" 
d="M120 563l15 84l78 3l-15 -84zM300 563l15 84l78 3l-15 -84z" />
    <glyph glyph-name="copyright" unicode="&#xa9;" horiz-adv-x="803" 
d="M414 -10c-212 0 -342 154 -342 343c0 190 130 344 342 344s342 -154 342 -344c0 -189 -130 -343 -342 -343zM414 620c-173 0 -281 -127 -281 -287c0 -159 108 -286 281 -286c174 0 281 127 281 286c0 160 -107 287 -281 287zM418 160c-96 0 -127 36 -127 109v129
c0 73 31 109 127 109c39 0 73 -7 99 -15l-9 -49c-29 8 -59 11 -85 11c-58 0 -72 -9 -72 -54v-133c0 -45 14 -54 72 -54c26 0 56 3 85 11l9 -49c-26 -8 -60 -15 -99 -15z" />
    <glyph glyph-name="ordfeminine" unicode="&#xaa;" horiz-adv-x="392" 
d="M281 389l3 33c-30 -23 -68 -39 -107 -39c-59 0 -73 36 -64 87l19 108c15 86 46 118 140 118c34 0 75 -8 110 -21l-50 -286h-51zM290 480l28 161c-13 3 -33 5 -51 5c-50 0 -68 -15 -78 -73l-19 -108c-3 -19 -2 -32 17 -32c31 0 73 21 103 47z" />
    <glyph glyph-name="guillemotleft" unicode="&#xab;" horiz-adv-x="480" 
d="M138 52l-92 192l157 193l54 -47l-126 -149l72 -157zM335 52l-92 192l157 193l54 -47l-126 -149l72 -157z" />
    <glyph glyph-name="logicalnot" unicode="&#xac;" horiz-adv-x="549" 
d="M393 59v173h-333v67h404v-240h-71z" />
    <glyph glyph-name="registered" unicode="&#xae;" horiz-adv-x="468" 
d="M284 334c-110 0 -179 81 -179 181s69 181 179 181c111 0 179 -81 179 -181s-68 -181 -179 -181zM284 658c-92 0 -139 -65 -139 -143s47 -143 139 -143c93 0 140 65 140 143s-47 143 -140 143zM332 437l-41 55h-35v-55h-27v164h65c36 0 50 -15 50 -44v-19
c0 -22 -7 -34 -24 -41l43 -60h-31zM318 556c0 17 -8 21 -25 21h-37v-61h37c19 0 25 7 25 20v20z" />
    <glyph glyph-name="macron" unicode="&#xaf;" horiz-adv-x="379" 
d="M125 566l10 59h239l-10 -59h-239z" />
    <glyph glyph-name="degree" unicode="&#xb0;" horiz-adv-x="345" 
d="M206 429c-61 0 -96 39 -96 91c0 76 47 136 134 136c62 0 96 -40 96 -91c0 -75 -45 -136 -134 -136zM238 615c-51 0 -81 -40 -81 -89c0 -31 12 -56 56 -56c56 0 80 45 80 89c0 32 -17 56 -55 56z" />
    <glyph glyph-name="plusminus" unicode="&#xb1;" horiz-adv-x="531" 
d="M301 301v-169h-71v169h-167v68h167v170h71v-170h166v-68h-166zM63 0v66h404v-66h-404z" />
    <glyph glyph-name="twosuperior" unicode="&#xb2;" horiz-adv-x="385" 
d="M69 243l5 52c40 39 51 50 119 118c84 84 88 91 93 119l3 17c6 35 -4 47 -56 47c-33 0 -63 -5 -94 -12l-8 55c29 9 81 17 117 17c73 0 122 -28 109 -101l-4 -22c-8 -46 -17 -58 -86 -130c-62 -64 -71 -73 -102 -103h148l-10 -57h-234z" />
    <glyph glyph-name="threesuperior" unicode="&#xb3;" horiz-adv-x="388" 
d="M186 236c-28 0 -74 7 -106 17l12 50c34 -8 69 -13 97 -13c56 0 67 10 73 45l7 40c1 5 1 9 1 11c0 22 -14 35 -48 35h-86l8 52h86c39 0 50 15 55 43l8 45c1 6 1 11 1 13c0 24 -16 28 -56 28c-23 0 -61 -3 -88 -8l-3 50c36 9 75 12 102 12c76 0 110 -25 110 -73
c0 -7 -1 -16 -2 -22l-8 -44c-6 -35 -16 -54 -56 -69c31 -9 42 -30 42 -55c0 -6 -1 -13 -2 -19l-7 -39c-13 -74 -44 -99 -140 -99z" />
    <glyph glyph-name="acute" unicode="&#xb4;" horiz-adv-x="302" 
d="M154 550l-29 52c48 24 97 52 148 88l31 -55c-50 -35 -86 -55 -150 -85z" />
    <glyph glyph-name="mu" unicode="&#xb5;" horiz-adv-x="530" 
d="M-5 -197l120 678l84 12l-67 -381c-1 -5 -2 -14 -2 -17c0 -20 10 -27 34 -27c49 0 124 36 184 73l59 340l85 12l-87 -493h-70l5 63c-48 -34 -148 -73 -206 -73c-9 0 -17 1 -24 2l-33 -189h-82z" />
    <glyph glyph-name="paragraph" unicode="&#xb6;" horiz-adv-x="503" 
d="M91 418c0 158 102 248 247 248l-73 -416c-106 0 -174 70 -174 168zM201 -207l-37 47c116 100 121 110 127 143l120 683h70l-118 -666c-14 -79 -17 -85 -162 -207z" />
    <glyph glyph-name="periodcentered" unicode="&#xb7;" horiz-adv-x="259" 
d="M90 270l19 110h85l-19 -110h-85z" />
    <glyph glyph-name="cedilla" unicode="&#xb8;" horiz-adv-x="303" 
d="M74 -204c-25 0 -52 6 -74 14l12 40c21 -7 40 -10 62 -10c42 0 62 14 62 40c0 13 -12 23 -37 23c-12 0 -31 -1 -47 -3l-9 15l32 91h46l-24 -70c11 2 23 3 31 3c37 0 60 -20 60 -54c0 -53 -39 -89 -114 -89z" />
    <glyph glyph-name="onesuperior" unicode="&#xb9;" horiz-adv-x="332" 
d="M158 242l58 329l-84 -38l-20 48l131 65h53l-71 -404h-67z" />
    <glyph glyph-name="ordmasculine" unicode="&#xba;" horiz-adv-x="387" 
d="M217 383c-88 0 -115 53 -104 116l15 86c13 73 47 111 142 111c77 0 116 -51 104 -117l-15 -85c-12 -68 -44 -111 -142 -111zM302 494l16 91c7 39 -8 62 -55 62c-49 0 -72 -16 -80 -63l-16 -90c-7 -40 6 -62 57 -62c49 0 71 22 78 62z" />
    <glyph glyph-name="guillemotright" unicode="&#xbb;" horiz-adv-x="480" 
d="M353 437l92 -192l-157 -193l-54 47l126 149l-72 157zM156 437l92 -192l-157 -193l-54 47l126 149l-72 157z" />
    <glyph glyph-name="onequarter" unicode="&#xbc;" horiz-adv-x="834" 
d="M680 87l-15 -87h-62l15 87h-184l5 54l207 263h90l-47 -264h58l-8 -53h-59zM664 348l-159 -208h122zM231 -33l-46 28l395 684l46 -26zM163 242l58 329l-84 -38l-20 48l131 65h53l-71 -404h-67z" />
    <glyph glyph-name="onehalf" unicode="&#xbd;" horiz-adv-x="855" 
d="M231 -33l-46 28l395 684l46 -26zM163 242l58 329l-84 -38l-20 48l131 65h53l-71 -404h-67zM495 0l5 52c40 39 51 50 119 118c84 84 88 91 93 119l3 17c6 35 -4 47 -56 47c-33 0 -63 -5 -94 -12l-8 55c29 9 81 17 117 17c73 0 122 -28 109 -101l-4 -22
c-8 -46 -17 -58 -86 -130c-62 -64 -71 -73 -102 -103h148l-10 -57h-234z" />
    <glyph glyph-name="threequarters" unicode="&#xbe;" horiz-adv-x="870" 
d="M191 236c-28 0 -74 7 -106 17l12 50c34 -8 69 -13 97 -13c56 0 67 10 73 45l7 40c1 5 1 9 1 11c0 22 -14 35 -48 35h-86l8 52h86c39 0 50 15 55 43l8 45c1 6 1 11 1 13c0 24 -16 28 -56 28c-23 0 -61 -3 -88 -8l-3 50c36 9 75 12 102 12c76 0 110 -25 110 -73
c0 -7 -1 -16 -2 -22l-8 -44c-6 -35 -16 -54 -56 -69c31 -9 42 -30 42 -55c0 -6 -1 -13 -2 -19l-7 -39c-13 -74 -44 -99 -140 -99zM716 87l-15 -87h-62l15 87h-184l5 54l207 263h90l-47 -264h58l-8 -53h-59zM700 348l-159 -208h122zM267 -33l-46 28l395 684l46 -26z" />
    <glyph glyph-name="questiondown" unicode="&#xbf;" horiz-adv-x="475" 
d="M206 209c39 25 48 31 85 55l38 -60c-51 -34 -65 -43 -122 -82c-64 -44 -71 -60 -85 -138c-4 -22 -7 -46 -7 -59c0 -47 21 -59 104 -59c34 0 91 7 134 16l8 -71c-51 -12 -109 -18 -159 -18c-120 0 -169 39 -169 119c0 19 3 44 7 68c22 124 28 141 166 229zM380 487
l-19 -110h-85l19 110h85z" />
    <glyph glyph-name="Agrave" unicode="&#xc0;" horiz-adv-x="621" 
d="M465 0l-24 162h-278l-83 -162h-88l335 666h120l104 -666h-86zM379 608l-182 -374h233zM400 717c-49 28 -80 52 -112 78l39 49c35 -30 61 -49 107 -80z" />
    <glyph glyph-name="Aacute" unicode="&#xc1;" horiz-adv-x="621" 
d="M465 0l-24 162h-278l-83 -162h-88l335 666h120l104 -666h-86zM379 608l-182 -374h233zM390 716l-30 49c45 27 75 46 116 78l34 -53c-37 -27 -69 -48 -120 -74z" />
    <glyph glyph-name="Acircumflex" unicode="&#xc2;" horiz-adv-x="621" 
d="M465 0l-24 162h-278l-83 -162h-88l335 666h120l104 -666h-86zM379 608l-182 -374h233zM489 715c-43 22 -59 32 -90 53c-33 -21 -62 -37 -94 -53l-25 46c44 25 80 46 128 78c33 -27 62 -49 109 -82z" />
    <glyph glyph-name="Atilde" unicode="&#xc3;" horiz-adv-x="621" 
d="M465 0l-24 162h-278l-83 -162h-88l335 666h120l104 -666h-86zM379 608l-182 -374h233zM458 724c-45 0 -76 38 -108 38c-24 0 -42 -19 -59 -35l-30 31c20 33 54 62 96 62c41 0 72 -38 105 -38c21 0 32 9 49 29l35 -25c-21 -37 -44 -62 -88 -62z" />
    <glyph glyph-name="Adieresis" unicode="&#xc4;" horiz-adv-x="621" 
d="M465 0l-24 162h-278l-83 -162h-88l335 666h120l104 -666h-86zM379 608l-182 -374h233zM266 732l13 75h79l-13 -75h-79zM453 732l13 75h79l-13 -75h-79z" />
    <glyph glyph-name="Aring" unicode="&#xc5;" horiz-adv-x="621" 
d="M465 0l-24 162h-278l-83 -162h-88l335 666h120l104 -666h-86zM379 608l-182 -374h233zM397 711c-37 0 -60 23 -60 56c0 50 30 81 83 81c39 0 60 -23 60 -53c0 -45 -25 -84 -83 -84zM415 815c-23 0 -39 -17 -39 -43c0 -16 7 -26 26 -26c26 0 38 19 38 44
c0 16 -7 25 -25 25z" />
    <glyph glyph-name="AE" unicode="&#xc6;" horiz-adv-x="847" 
d="M465 0l-24 162h-278l-83 -162h-88l335 666h531l-14 -75h-386l34 -213h293l-13 -74h-269l36 -229h215l-13 -75h-276zM379 608l-182 -374h233z" />
    <glyph glyph-name="Ccedilla" unicode="&#xc7;" horiz-adv-x="516" 
d="M224 -204c-25 0 -52 6 -74 14l12 40c21 -7 40 -10 62 -10c42 0 62 14 62 40c0 13 -12 23 -37 23c-12 0 -31 -1 -47 -3l-9 15l26 76c-118 9 -165 68 -165 153c0 15 2 31 5 49l51 289c25 139 97 194 258 194c51 0 115 -7 166 -21l-17 -72c-51 11 -112 18 -156 18
c-109 0 -151 -30 -169 -130l-49 -279c-3 -16 -4 -30 -4 -42c0 -60 33 -85 128 -85c44 0 106 6 159 16l3 -72c-48 -10 -111 -17 -164 -19l-18 -54c11 2 23 3 31 3c37 0 60 -20 60 -54c0 -53 -39 -89 -114 -89z" />
    <glyph glyph-name="Egrave" unicode="&#xc8;" horiz-adv-x="534" 
d="M40 0l117 666h388l-14 -75h-302l-37 -213h280l-13 -74h-281l-41 -229h304l-13 -75h-388zM370 717c-49 28 -80 52 -112 78l39 49c35 -30 61 -49 107 -80z" />
    <glyph glyph-name="Eacute" unicode="&#xc9;" horiz-adv-x="534" 
d="M40 0l117 666h388l-14 -75h-302l-37 -213h280l-13 -74h-281l-41 -229h304l-13 -75h-388zM341 716l-30 49c45 27 75 46 116 78l34 -53c-37 -27 -69 -48 -120 -74z" />
    <glyph glyph-name="Ecircumflex" unicode="&#xca;" horiz-adv-x="534" 
d="M40 0l117 666h388l-14 -75h-302l-37 -213h280l-13 -74h-281l-41 -229h304l-13 -75h-388zM453 715c-43 22 -59 32 -90 53c-33 -21 -62 -37 -94 -53l-25 46c44 25 80 46 128 78c33 -27 62 -49 109 -82z" />
    <glyph glyph-name="Edieresis" unicode="&#xcb;" horiz-adv-x="534" 
d="M40 0l117 666h388l-14 -75h-302l-37 -213h280l-13 -74h-281l-41 -229h304l-13 -75h-388zM224 732l13 75h79l-13 -75h-79zM411 732l13 75h79l-13 -75h-79z" />
    <glyph glyph-name="Igrave" unicode="&#xcc;" horiz-adv-x="264" 
d="M45 0l117 666h84l-117 -666h-84zM218 717c-49 28 -80 52 -112 78l39 49c35 -30 61 -49 107 -80z" />
    <glyph glyph-name="Iacute" unicode="&#xcd;" horiz-adv-x="264" 
d="M45 0l117 666h84l-117 -666h-84zM199 716l-30 49c45 27 75 46 116 78l34 -53c-37 -27 -69 -48 -120 -74z" />
    <glyph glyph-name="Icircumflex" unicode="&#xce;" horiz-adv-x="264" 
d="M45 0l117 666h84l-117 -666h-84zM308 715c-43 22 -59 32 -90 53c-33 -21 -62 -37 -94 -53l-25 46c44 25 80 46 128 78c33 -27 62 -49 109 -82z" />
    <glyph glyph-name="Idieresis" unicode="&#xcf;" horiz-adv-x="264" 
d="M45 0l117 666h84l-117 -666h-84zM82 732l13 75h79l-13 -75h-79zM269 732l13 75h79l-13 -75h-79z" />
    <glyph glyph-name="Eth" unicode="&#xd0;" horiz-adv-x="619" 
d="M42 304l12 68h77l52 294h224c138 0 188 -66 188 -154c0 -15 -1 -30 -4 -46l-51 -290c-21 -120 -72 -176 -236 -176h-238l53 304h-77zM459 192l48 273c2 13 4 25 4 41c0 53 -28 85 -115 85h-142l-39 -219h126l-12 -68h-126l-40 -229h141c108 0 140 32 155 117z" />
    <glyph glyph-name="Ntilde" unicode="&#xd1;" horiz-adv-x="657" 
d="M413 0l-191 568l-100 -568h-82l117 666h112l192 -576l101 576h82l-117 -666h-114zM469 724c-45 0 -76 38 -108 38c-24 0 -42 -19 -59 -35l-30 31c20 33 54 62 96 62c41 0 72 -38 105 -38c21 0 32 9 49 29l35 -25c-21 -37 -44 -62 -88 -62z" />
    <glyph glyph-name="Ograve" unicode="&#xd2;" horiz-adv-x="619" 
d="M263 -10c-146 0 -207 69 -207 165c0 11 1 27 4 43l48 273c25 140 98 205 272 205c136 0 210 -73 210 -173c0 -12 -2 -26 -4 -37l-49 -279c-21 -119 -88 -197 -274 -197zM455 194l48 273c2 12 4 24 4 36c0 62 -38 99 -136 99c-113 0 -163 -39 -180 -135l-47 -268
c-3 -17 -4 -29 -4 -39c0 -59 33 -96 136 -96c116 0 164 47 179 130zM385 717c-49 28 -80 52 -112 78l39 49c35 -30 61 -49 107 -80z" />
    <glyph glyph-name="Oacute" unicode="&#xd3;" horiz-adv-x="619" 
d="M263 -10c-146 0 -207 69 -207 165c0 11 1 27 4 43l48 273c25 140 98 205 272 205c136 0 210 -73 210 -173c0 -12 -2 -26 -4 -37l-49 -279c-21 -119 -88 -197 -274 -197zM455 194l48 273c2 12 4 24 4 36c0 62 -38 99 -136 99c-113 0 -163 -39 -180 -135l-47 -268
c-3 -17 -4 -29 -4 -39c0 -59 33 -96 136 -96c116 0 164 47 179 130zM375 716l-30 49c45 27 75 46 116 78l34 -53c-37 -27 -69 -48 -120 -74z" />
    <glyph glyph-name="Ocircumflex" unicode="&#xd4;" horiz-adv-x="619" 
d="M263 -10c-146 0 -207 69 -207 165c0 11 1 27 4 43l48 273c25 140 98 205 272 205c136 0 210 -73 210 -173c0 -12 -2 -26 -4 -37l-49 -279c-21 -119 -88 -197 -274 -197zM455 194l48 273c2 12 4 24 4 36c0 62 -38 99 -136 99c-113 0 -163 -39 -180 -135l-47 -268
c-3 -17 -4 -29 -4 -39c0 -59 33 -96 136 -96c116 0 164 47 179 130zM479 715c-43 22 -59 32 -90 53c-33 -21 -62 -37 -94 -53l-25 46c44 25 80 46 128 78c33 -27 62 -49 109 -82z" />
    <glyph glyph-name="Otilde" unicode="&#xd5;" horiz-adv-x="619" 
d="M263 -10c-146 0 -207 69 -207 165c0 11 1 27 4 43l48 273c25 140 98 205 272 205c136 0 210 -73 210 -173c0 -12 -2 -26 -4 -37l-49 -279c-21 -119 -88 -197 -274 -197zM455 194l48 273c2 12 4 24 4 36c0 62 -38 99 -136 99c-113 0 -163 -39 -180 -135l-47 -268
c-3 -17 -4 -29 -4 -39c0 -59 33 -96 136 -96c116 0 164 47 179 130zM451 724c-45 0 -76 38 -108 38c-24 0 -42 -19 -59 -35l-30 31c20 33 54 62 96 62c41 0 72 -38 105 -38c21 0 32 9 49 29l35 -25c-21 -37 -44 -62 -88 -62z" />
    <glyph glyph-name="Odieresis" unicode="&#xd6;" horiz-adv-x="619" 
d="M263 -10c-146 0 -207 69 -207 165c0 11 1 27 4 43l48 273c25 140 98 205 272 205c136 0 210 -73 210 -173c0 -12 -2 -26 -4 -37l-49 -279c-21 -119 -88 -197 -274 -197zM455 194l48 273c2 12 4 24 4 36c0 62 -38 99 -136 99c-113 0 -163 -39 -180 -135l-47 -268
c-3 -17 -4 -29 -4 -39c0 -59 33 -96 136 -96c116 0 164 47 179 130zM257 732l13 75h79l-13 -75h-79zM444 732l13 75h79l-13 -75h-79z" />
    <glyph glyph-name="multiply" unicode="&#xd7;" horiz-adv-x="524" 
d="M408 51l-141 142l-141 -142l-49 49l141 142l-141 142l49 49l141 -141l141 141l49 -49l-141 -142l141 -142z" />
    <glyph glyph-name="Oslash" unicode="&#xd8;" horiz-adv-x="619" 
d="M27 -33l63 84c-23 28 -34 63 -34 104c0 11 1 27 4 43l48 273c25 140 98 205 272 205c62 0 112 -16 147 -42l69 92l36 -27l-73 -97c20 -28 31 -61 31 -99c0 -12 -2 -26 -4 -37l-49 -279c-21 -119 -88 -197 -274 -197c-60 0 -105 11 -138 31l-61 -81zM140 160
c0 -13 1 -25 5 -36l335 448c-21 19 -57 30 -109 30c-113 0 -163 -39 -180 -135l-47 -268c-3 -17 -4 -29 -4 -39zM455 194l48 273c2 12 4 24 4 36c0 9 -1 18 -3 26l-331 -443c22 -14 55 -22 103 -22c116 0 164 47 179 130z" />
    <glyph glyph-name="Ugrave" unicode="&#xd9;" horiz-adv-x="631" 
d="M271 -10c-142 0 -206 69 -206 163c0 10 1 24 4 40l83 473h84l-83 -473c-2 -12 -3 -27 -3 -37c0 -61 37 -92 132 -92c112 0 159 49 174 134l83 468h84l-84 -478c-20 -115 -83 -198 -268 -198zM410 717c-49 28 -80 52 -112 78l39 49c35 -30 61 -49 107 -80z" />
    <glyph glyph-name="Uacute" unicode="&#xda;" horiz-adv-x="631" 
d="M271 -10c-142 0 -206 69 -206 163c0 10 1 24 4 40l83 473h84l-83 -473c-2 -12 -3 -27 -3 -37c0 -61 37 -92 132 -92c112 0 159 49 174 134l83 468h84l-84 -478c-20 -115 -83 -198 -268 -198zM371 716l-30 49c45 27 75 46 116 78l34 -53c-37 -27 -69 -48 -120 -74z" />
    <glyph glyph-name="Ucircumflex" unicode="&#xdb;" horiz-adv-x="631" 
d="M271 -10c-142 0 -206 69 -206 163c0 10 1 24 4 40l83 473h84l-83 -473c-2 -12 -3 -27 -3 -37c0 -61 37 -92 132 -92c112 0 159 49 174 134l83 468h84l-84 -478c-20 -115 -83 -198 -268 -198zM492 715c-43 22 -59 32 -90 53c-33 -21 -62 -37 -94 -53l-25 46
c44 25 80 46 128 78c33 -27 62 -49 109 -82z" />
    <glyph glyph-name="Udieresis" unicode="&#xdc;" horiz-adv-x="631" 
d="M271 -10c-142 0 -206 69 -206 163c0 10 1 24 4 40l83 473h84l-83 -473c-2 -12 -3 -27 -3 -37c0 -61 37 -92 132 -92c112 0 159 49 174 134l83 468h84l-84 -478c-20 -115 -83 -198 -268 -198zM264 732l13 75h79l-13 -75h-79zM451 732l13 75h79l-13 -75h-79z" />
    <glyph glyph-name="Yacute" unicode="&#xdd;" horiz-adv-x="535" 
d="M298 198l-35 -198h-84l36 205l-138 461h81l113 -376l237 376h95zM319 716l-30 49c45 27 75 46 116 78l34 -53c-37 -27 -69 -48 -120 -74z" />
    <glyph glyph-name="Thorn" unicode="&#xde;" horiz-adv-x="561" 
d="M298 122h-152l-22 -122h-84l117 666h84l-20 -117h150c121 0 172 -49 172 -130c0 -13 -1 -25 -4 -42l-16 -92c-18 -106 -66 -163 -225 -163zM440 291l16 91c2 11 3 20 3 29c0 46 -28 63 -95 63h-156l-49 -278h155c86 0 114 28 126 95z" />
    <glyph glyph-name="germandbls" unicode="&#xdf;" horiz-adv-x="587" 
d="M35 -28l98 556c22 126 74 178 215 178c106 0 165 -52 165 -126c0 -62 -12 -82 -63 -158c-39 -58 -53 -75 -53 -101c0 -15 7 -26 56 -68c52 -45 69 -63 69 -97c0 -106 -30 -166 -172 -166c-30 0 -74 6 -106 19l15 63c27 -8 73 -14 95 -14c62 0 85 14 85 80
c0 22 -13 32 -63 74c-48 40 -62 69 -62 99c0 45 16 73 50 120c55 76 66 101 66 140c0 40 -31 66 -91 66c-74 0 -110 -27 -125 -115l-98 -559c-14 -78 -36 -115 -99 -170l-50 51c44 40 56 64 68 128z" />
    <glyph glyph-name="agrave" unicode="&#xe0;" horiz-adv-x="513" 
d="M470 464l-82 -464h-68l3 59c-54 -48 -120 -69 -182 -69c-75 0 -103 41 -103 97c0 12 2 25 4 38l34 193c21 118 65 179 219 179c60 0 127 -15 175 -33zM332 146l47 268c-26 7 -60 12 -94 12c-75 0 -112 -23 -129 -119l-31 -176c-2 -12 -4 -25 -4 -34c0 -23 10 -36 40 -36
c61 0 115 34 171 85zM336 550c-52 32 -83 56 -117 87l43 51c33 -32 64 -57 111 -90z" />
    <glyph glyph-name="aacute" unicode="&#xe1;" horiz-adv-x="513" 
d="M470 464l-82 -464h-68l3 59c-54 -48 -120 -69 -182 -69c-75 0 -103 41 -103 97c0 12 2 25 4 38l34 193c21 118 65 179 219 179c60 0 127 -15 175 -33zM332 146l47 268c-26 7 -60 12 -94 12c-75 0 -112 -23 -129 -119l-31 -176c-2 -12 -4 -25 -4 -34c0 -23 10 -36 40 -36
c61 0 115 34 171 85zM276 550l-29 52c48 24 97 52 148 88l31 -55c-50 -35 -86 -55 -150 -85z" />
    <glyph glyph-name="acircumflex" unicode="&#xe2;" horiz-adv-x="513" 
d="M470 464l-82 -464h-68l3 59c-54 -48 -120 -69 -182 -69c-75 0 -103 41 -103 97c0 12 2 25 4 38l34 193c21 118 65 179 219 179c60 0 127 -15 175 -33zM332 146l47 268c-26 7 -60 12 -94 12c-75 0 -112 -23 -129 -119l-31 -176c-2 -12 -4 -25 -4 -34c0 -23 10 -36 40 -36
c61 0 115 34 171 85zM416 542c-41 23 -66 42 -93 64c-35 -27 -63 -43 -105 -64l-26 47c49 29 83 49 140 91c35 -36 68 -61 114 -95z" />
    <glyph glyph-name="atilde" unicode="&#xe3;" horiz-adv-x="513" 
d="M470 464l-82 -464h-68l3 59c-54 -48 -120 -69 -182 -69c-75 0 -103 41 -103 97c0 12 2 25 4 38l34 193c21 118 65 179 219 179c60 0 127 -15 175 -33zM332 146l47 268c-26 7 -60 12 -94 12c-75 0 -112 -23 -129 -119l-31 -176c-2 -12 -4 -25 -4 -34c0 -23 10 -36 40 -36
c61 0 115 34 171 85zM378 554c-45 0 -76 38 -108 38c-24 0 -41 -19 -58 -35l-31 31c20 33 54 62 96 62c41 0 72 -38 106 -38c20 0 31 9 49 29l35 -25c-21 -37 -45 -62 -89 -62z" />
    <glyph glyph-name="adieresis" unicode="&#xe4;" horiz-adv-x="513" 
d="M470 464l-82 -464h-68l3 59c-54 -48 -120 -69 -182 -69c-75 0 -103 41 -103 97c0 12 2 25 4 38l34 193c21 118 65 179 219 179c60 0 127 -15 175 -33zM332 146l47 268c-26 7 -60 12 -94 12c-75 0 -112 -23 -129 -119l-31 -176c-2 -12 -4 -25 -4 -34c0 -23 10 -36 40 -36
c61 0 115 34 171 85zM190 563l15 84l78 3l-15 -84zM370 563l15 84l78 3l-15 -84z" />
    <glyph glyph-name="aring" unicode="&#xe5;" horiz-adv-x="513" 
d="M470 464l-82 -464h-68l3 59c-54 -48 -120 -69 -182 -69c-75 0 -103 41 -103 97c0 12 2 25 4 38l34 193c21 118 65 179 219 179c60 0 127 -15 175 -33zM332 146l47 268c-26 7 -60 12 -94 12c-75 0 -112 -23 -129 -119l-31 -176c-2 -12 -4 -25 -4 -34c0 -23 10 -36 40 -36
c61 0 115 34 171 85zM317 542c-39 0 -63 25 -63 59c0 51 33 86 88 86c40 0 63 -26 63 -57c0 -46 -27 -88 -88 -88zM337 653c-26 0 -43 -20 -43 -47c0 -16 6 -29 29 -29c27 0 41 22 41 48c0 17 -9 28 -27 28z" />
    <glyph glyph-name="ae" unicode="&#xe6;" horiz-adv-x="718" 
d="M396 198l-12 -65c-1 -7 -2 -15 -2 -21c0 -35 21 -53 74 -53s114 17 180 49l18 -62c-65 -35 -135 -56 -208 -56c-63 0 -105 17 -127 53c-53 -35 -112 -53 -181 -53c-76 0 -116 42 -116 107c0 126 63 164 170 164h133l14 80c2 10 3 20 3 26c0 44 -29 60 -96 60
c-46 0 -98 -6 -143 -16l-9 63c48 14 113 23 165 23c73 0 119 -22 137 -71c35 47 89 71 157 71c81 0 134 -42 134 -119c0 -116 -101 -160 -291 -180zM416 311l-9 -49c151 14 204 51 204 116c0 23 -13 52 -65 52c-73 0 -115 -39 -130 -119zM314 197h-118
c-65 0 -94 -17 -94 -97c0 -25 14 -43 60 -43c42 0 96 15 141 40c-2 14 0 33 3 50c2 16 5 32 8 50z" />
    <glyph glyph-name="ccedilla" unicode="&#xe7;" horiz-adv-x="409" 
d="M154 -204c-25 0 -52 6 -74 14l12 40c21 -7 40 -10 62 -10c42 0 62 14 62 40c0 13 -12 23 -37 23c-12 0 -31 -1 -47 -3l-9 15l26 76c-79 5 -114 46 -114 108c0 9 1 24 4 39l35 181c26 134 80 178 209 178c36 0 79 -7 118 -22l-18 -66c-34 11 -72 17 -104 17
c-79 0 -109 -27 -126 -119l-32 -182c-1 -7 -2 -14 -2 -21c0 -31 16 -43 58 -43c44 0 102 14 151 33l11 -67c-42 -19 -91 -32 -143 -36l-19 -55c11 2 23 3 31 3c37 0 60 -20 60 -54c0 -53 -39 -89 -114 -89z" />
    <glyph glyph-name="egrave" unicode="&#xe8;" horiz-adv-x="453" 
d="M134 180l-9 -50c-2 -11 -2 -18 -2 -22c0 -31 15 -49 67 -49c51 0 112 19 178 51l18 -61c-62 -34 -126 -59 -207 -59c-98 0 -137 46 -137 113c0 12 1 28 4 45l29 164c22 123 77 185 215 185c81 0 139 -38 139 -110c0 -82 -38 -123 -175 -169c-59 -20 -78 -25 -120 -38z
M237 283c81 24 115 55 115 95c0 32 -24 52 -68 52c-76 0 -111 -28 -125 -107l-12 -67c27 8 43 13 90 27zM300 550c-52 32 -83 56 -117 87l43 51c33 -32 64 -57 111 -90z" />
    <glyph glyph-name="eacute" unicode="&#xe9;" horiz-adv-x="453" 
d="M134 180l-9 -50c-2 -11 -2 -18 -2 -22c0 -31 15 -49 67 -49c51 0 112 19 178 51l18 -61c-62 -34 -126 -59 -207 -59c-98 0 -137 46 -137 113c0 12 1 28 4 45l29 164c22 123 77 185 215 185c81 0 139 -38 139 -110c0 -82 -38 -123 -175 -169c-59 -20 -78 -25 -120 -38z
M237 283c81 24 115 55 115 95c0 32 -24 52 -68 52c-76 0 -111 -28 -125 -107l-12 -67c27 8 43 13 90 27zM263 550l-29 52c48 24 97 52 148 88l31 -55c-50 -35 -86 -55 -150 -85z" />
    <glyph glyph-name="ecircumflex" unicode="&#xea;" horiz-adv-x="453" 
d="M134 180l-9 -50c-2 -11 -2 -18 -2 -22c0 -31 15 -49 67 -49c51 0 112 19 178 51l18 -61c-62 -34 -126 -59 -207 -59c-98 0 -137 46 -137 113c0 12 1 28 4 45l29 164c22 123 77 185 215 185c81 0 139 -38 139 -110c0 -82 -38 -123 -175 -169c-59 -20 -78 -25 -120 -38z
M237 283c81 24 115 55 115 95c0 32 -24 52 -68 52c-76 0 -111 -28 -125 -107l-12 -67c27 8 43 13 90 27zM393 542c-41 23 -66 42 -93 64c-35 -27 -63 -43 -105 -64l-26 47c49 29 83 49 140 91c35 -36 68 -61 114 -95z" />
    <glyph glyph-name="edieresis" unicode="&#xeb;" horiz-adv-x="453" 
d="M134 180l-9 -50c-2 -11 -2 -18 -2 -22c0 -31 15 -49 67 -49c51 0 112 19 178 51l18 -61c-62 -34 -126 -59 -207 -59c-98 0 -137 46 -137 113c0 12 1 28 4 45l29 164c22 123 77 185 215 185c81 0 139 -38 139 -110c0 -82 -38 -123 -175 -169c-59 -20 -78 -25 -120 -38z
M237 283c81 24 115 55 115 95c0 32 -24 52 -68 52c-76 0 -111 -28 -125 -107l-12 -67c27 8 43 13 90 27zM166 563l15 84l78 3l-15 -84zM346 563l15 84l78 3l-15 -84z" />
    <glyph glyph-name="igrave" unicode="&#xec;" horiz-adv-x="242" 
d="M35 0l85 481l84 12l-87 -493h-82zM177 550c-52 32 -83 56 -117 87l43 51c33 -32 64 -57 111 -90z" />
    <glyph glyph-name="iacute" unicode="&#xed;" horiz-adv-x="242" 
d="M35 0l85 481l84 12l-87 -493h-82zM155 550l-29 52c48 24 97 52 148 88l31 -55c-50 -35 -86 -55 -150 -85z" />
    <glyph glyph-name="icircumflex" unicode="&#xee;" horiz-adv-x="242" 
d="M35 0l85 481l84 12l-87 -493h-82zM272 542c-41 23 -66 42 -93 64c-35 -27 -63 -43 -105 -64l-26 47c49 29 83 49 140 91c35 -36 68 -61 114 -95z" />
    <glyph glyph-name="idieresis" unicode="&#xef;" horiz-adv-x="242" 
d="M35 0l85 481l84 12l-87 -493h-82zM48 563l15 84l78 3l-15 -84zM228 563l15 84l78 3l-15 -84z" />
    <glyph glyph-name="eth" unicode="&#xf0;" 
d="M229 556l82 44c-30 18 -65 32 -102 40l20 60c59 -12 109 -34 149 -64l84 45l24 -45l-68 -36c44 -46 66 -108 66 -179c0 -20 -3 -46 -6 -64l-33 -187c-19 -110 -78 -180 -229 -180c-119 0 -169 60 -169 143c0 14 2 31 4 43l18 102c21 119 66 182 206 182
c32 0 96 -7 135 -30c2 55 -18 102 -55 136l-103 -54s-23 43 -23 44zM364 170l33 189c-36 17 -88 30 -127 30c-81 0 -106 -38 -120 -114l-19 -104c-2 -13 -3 -25 -3 -36c0 -47 24 -75 99 -75c90 0 124 36 137 110z" />
    <glyph glyph-name="ntilde" unicode="&#xf1;" horiz-adv-x="530" 
d="M392 497c61 0 87 -33 87 -86c0 -11 -1 -26 -4 -42l-65 -369h-82l66 375c1 6 2 13 2 17c0 20 -10 27 -34 27c-49 0 -124 -36 -184 -73l-61 -346h-82l85 481l72 12l-6 -69c48 34 148 73 206 73zM368 554c-45 0 -76 38 -108 38c-24 0 -41 -19 -58 -35l-31 31
c20 33 54 62 96 62c41 0 72 -38 106 -38c20 0 31 9 49 29l35 -25c-21 -37 -45 -62 -89 -62z" />
    <glyph glyph-name="ograve" unicode="&#xf2;" horiz-adv-x="506" 
d="M207 -10c-139 0 -185 80 -166 185l25 142c21 119 89 180 229 180c112 0 170 -62 170 -145c0 -7 0 -18 -3 -34l-27 -153c-19 -110 -77 -175 -228 -175zM354 170l26 148c2 11 3 21 3 29c0 53 -31 79 -100 79c-80 0 -122 -38 -135 -114l-25 -141c-11 -67 5 -110 96 -110
c84 0 122 36 135 109zM308 550c-52 32 -83 56 -117 87l43 51c33 -32 64 -57 111 -90z" />
    <glyph glyph-name="oacute" unicode="&#xf3;" horiz-adv-x="506" 
d="M207 -10c-139 0 -185 80 -166 185l25 142c21 119 89 180 229 180c112 0 170 -62 170 -145c0 -7 0 -18 -3 -34l-27 -153c-19 -110 -77 -175 -228 -175zM354 170l26 148c2 11 3 21 3 29c0 53 -31 79 -100 79c-80 0 -122 -38 -135 -114l-25 -141c-11 -67 5 -110 96 -110
c84 0 122 36 135 109zM269 550l-29 52c48 24 97 52 148 88l31 -55c-50 -35 -86 -55 -150 -85z" />
    <glyph glyph-name="ocircumflex" unicode="&#xf4;" horiz-adv-x="506" 
d="M207 -10c-139 0 -185 80 -166 185l25 142c21 119 89 180 229 180c112 0 170 -62 170 -145c0 -7 0 -18 -3 -34l-27 -153c-19 -110 -77 -175 -228 -175zM354 170l26 148c2 11 3 21 3 29c0 53 -31 79 -100 79c-80 0 -122 -38 -135 -114l-25 -141c-11 -67 5 -110 96 -110
c84 0 122 36 135 109zM404 542c-41 23 -66 42 -93 64c-35 -27 -63 -43 -105 -64l-26 47c49 29 83 49 140 91c35 -36 68 -61 114 -95z" />
    <glyph glyph-name="otilde" unicode="&#xf5;" horiz-adv-x="506" 
d="M207 -10c-139 0 -185 80 -166 185l25 142c21 119 89 180 229 180c112 0 170 -62 170 -145c0 -7 0 -18 -3 -34l-27 -153c-19 -110 -77 -175 -228 -175zM354 170l26 148c2 11 3 21 3 29c0 53 -31 79 -100 79c-80 0 -122 -38 -135 -114l-25 -141c-11 -67 5 -110 96 -110
c84 0 122 36 135 109zM363 554c-45 0 -76 38 -108 38c-24 0 -41 -19 -58 -35l-31 31c20 33 54 62 96 62c41 0 72 -38 106 -38c20 0 31 9 49 29l35 -25c-21 -37 -45 -62 -89 -62z" />
    <glyph glyph-name="odieresis" unicode="&#xf6;" horiz-adv-x="506" 
d="M207 -10c-139 0 -185 80 -166 185l25 142c21 119 89 180 229 180c112 0 170 -62 170 -145c0 -7 0 -18 -3 -34l-27 -153c-19 -110 -77 -175 -228 -175zM354 170l26 148c2 11 3 21 3 29c0 53 -31 79 -100 79c-80 0 -122 -38 -135 -114l-25 -141c-11 -67 5 -110 96 -110
c84 0 122 36 135 109zM181 563l15 84l78 3l-15 -84zM361 563l15 84l78 3l-15 -84z" />
    <glyph glyph-name="divide" unicode="&#xf7;" horiz-adv-x="526" 
d="M223 364v92h81v-92h-81zM60 212v62h406v-62h-406zM223 30v92h81v-92h-81z" />
    <glyph glyph-name="oslash" unicode="&#xf8;" horiz-adv-x="506" 
d="M11 -24l54 67c-27 33 -34 79 -24 132l25 142c21 119 89 180 229 180c47 0 85 -11 112 -30l57 70l31 -25l-59 -72c19 -24 29 -55 29 -88c0 -7 0 -18 -3 -34l-27 -153c-19 -110 -77 -175 -228 -175c-48 0 -85 10 -112 26l-54 -66zM123 171c-4 -22 -5 -41 -1 -57l237 292
c-17 13 -42 20 -76 20c-80 0 -122 -38 -135 -114zM354 170l26 148c2 11 3 21 3 29s-1 16 -3 23l-235 -292c15 -11 39 -17 74 -17c84 0 122 36 135 109z" />
    <glyph glyph-name="ugrave" unicode="&#xf9;" horiz-adv-x="530" 
d="M199 493l-67 -381c-1 -6 -2 -13 -2 -17c0 -20 10 -27 34 -27c49 0 124 36 184 73l59 340l85 12l-87 -493h-70l5 63c-48 -34 -148 -73 -206 -73c-61 0 -87 33 -87 86c0 11 1 26 4 42l64 363zM328 550c-52 32 -83 56 -117 87l43 51c33 -32 64 -57 111 -90z" />
    <glyph glyph-name="uacute" unicode="&#xfa;" horiz-adv-x="530" 
d="M199 493l-67 -381c-1 -6 -2 -13 -2 -17c0 -20 10 -27 34 -27c49 0 124 36 184 73l59 340l85 12l-87 -493h-70l5 63c-48 -34 -148 -73 -206 -73c-61 0 -87 33 -87 86c0 11 1 26 4 42l64 363zM284 550l-29 52c48 24 97 52 148 88l31 -55c-50 -35 -86 -55 -150 -85z" />
    <glyph glyph-name="ucircumflex" unicode="&#xfb;" horiz-adv-x="530" 
d="M199 493l-67 -381c-1 -6 -2 -13 -2 -17c0 -20 10 -27 34 -27c49 0 124 36 184 73l59 340l85 12l-87 -493h-70l5 63c-48 -34 -148 -73 -206 -73c-61 0 -87 33 -87 86c0 11 1 26 4 42l64 363zM421 542c-41 23 -66 42 -93 64c-35 -27 -63 -43 -105 -64l-26 47
c49 29 83 49 140 91c35 -36 68 -61 114 -95z" />
    <glyph glyph-name="udieresis" unicode="&#xfc;" horiz-adv-x="530" 
d="M199 493l-67 -381c-1 -6 -2 -13 -2 -17c0 -20 10 -27 34 -27c49 0 124 36 184 73l59 340l85 12l-87 -493h-70l5 63c-48 -34 -148 -73 -206 -73c-61 0 -87 33 -87 86c0 11 1 26 4 42l64 363zM196 563l15 84l78 3l-15 -84zM376 563l15 84l78 3l-15 -84z" />
    <glyph glyph-name="yacute" unicode="&#xfd;" horiz-adv-x="434" 
d="M244 0c-54 -99 -101 -165 -232 -208l-22 63c78 28 124 66 169 145h-29l-76 480l79 11l62 -426l138 288c15 31 18 48 18 74c0 14 -3 37 -8 54l79 12c4 -17 8 -40 8 -64c0 -26 -1 -53 -17 -85zM211 550l-29 52c48 24 97 52 148 88l31 -55c-50 -35 -86 -55 -150 -85z" />
    <glyph glyph-name="thorn" unicode="&#xfe;" horiz-adv-x="512" 
d="M-2 -209l158 895l85 12l-48 -265c56 46 119 64 179 64c75 0 102 -41 102 -97c0 -9 -1 -26 -3 -38l-34 -192c-21 -120 -64 -180 -218 -180c-33 0 -68 5 -101 13l-36 -200zM177 340l-47 -267c26 -7 71 -12 98 -12c87 0 112 24 129 120l31 177c2 12 3 22 3 31
c0 24 -9 37 -39 37c-63 0 -117 -36 -175 -86z" />
    <glyph glyph-name="ydieresis" unicode="&#xff;" horiz-adv-x="434" 
d="M244 0c-54 -99 -101 -165 -232 -208l-22 63c78 28 124 66 169 145h-29l-76 480l79 11l62 -426l138 288c15 31 18 48 18 74c0 14 -3 37 -8 54l79 12c4 -17 8 -40 8 -64c0 -26 -1 -53 -17 -85zM126 563l15 84l78 3l-15 -84zM306 563l15 84l78 3l-15 -84z" />
    <glyph glyph-name="Amacron" unicode="&#x100;" horiz-adv-x="621" 
d="M465 0l-24 162h-278l-83 -162h-88l335 666h120l104 -666h-86zM379 608l-182 -374h233zM277 737l11 59h239l-11 -59h-239z" />
    <glyph glyph-name="amacron" unicode="&#x101;" horiz-adv-x="513" 
d="M470 464l-82 -464h-68l3 59c-54 -48 -120 -69 -182 -69c-75 0 -103 41 -103 97c0 12 2 25 4 38l34 193c21 118 65 179 219 179c60 0 127 -15 175 -33zM332 146l47 268c-26 7 -60 12 -94 12c-75 0 -112 -23 -129 -119l-31 -176c-2 -12 -4 -25 -4 -34c0 -23 10 -36 40 -36
c61 0 115 34 171 85zM202 566l10 59h239l-10 -59h-239z" />
    <glyph glyph-name="Abreve" unicode="&#x102;" horiz-adv-x="621" 
d="M465 0l-24 162h-278l-83 -162h-88l335 666h120l104 -666h-86zM379 608l-182 -374h233zM399 715c-63 0 -103 37 -116 79l46 27c13 -31 34 -51 75 -51c40 0 63 18 87 52l40 -29c-22 -44 -62 -78 -132 -78z" />
    <glyph glyph-name="abreve" unicode="&#x103;" horiz-adv-x="513" 
d="M470 464l-82 -464h-68l3 59c-54 -48 -120 -69 -182 -69c-75 0 -103 41 -103 97c0 12 2 25 4 38l34 193c21 118 65 179 219 179c60 0 127 -15 175 -33zM332 146l47 268c-26 7 -60 12 -94 12c-75 0 -112 -23 -129 -119l-31 -176c-2 -12 -4 -25 -4 -34c0 -23 10 -36 40 -36
c61 0 115 34 171 85zM315 539c-65 0 -107 41 -121 86l47 26c13 -34 34 -57 78 -57c46 0 72 25 96 59l40 -29c-23 -44 -63 -85 -140 -85z" />
    <glyph glyph-name="Aogonek" unicode="&#x104;" horiz-adv-x="621" 
d="M516 -194c-17 -9 -39 -13 -63 -13c-56 0 -91 26 -91 73c0 55 49 102 103 134l-24 162h-278l-83 -162h-88l335 666h120l104 -666c-74 -38 -119 -76 -119 -121c0 -18 11 -32 41 -32c16 0 27 2 39 6zM379 608l-182 -374h233z" />
    <glyph glyph-name="aogonek" unicode="&#x105;" horiz-adv-x="513" 
d="M353 -194c-17 -9 -39 -13 -63 -13c-56 0 -91 26 -91 73c0 61 59 105 121 134l3 59c-54 -48 -120 -69 -182 -69c-75 0 -103 41 -103 97c0 12 2 25 4 38l34 193c21 118 65 179 219 179c60 0 127 -15 175 -33l-82 -464c-78 -39 -119 -76 -119 -121c0 -18 11 -32 41 -32
c16 0 27 2 39 6zM332 146l47 268c-26 7 -60 12 -94 12c-75 0 -112 -23 -129 -119l-31 -176c-2 -12 -4 -25 -4 -34c0 -23 10 -36 40 -36c61 0 115 34 171 85z" />
    <glyph glyph-name="Cacute" unicode="&#x106;" horiz-adv-x="516" 
d="M250 -10c-141 0 -196 62 -196 154c0 15 2 31 5 49l51 289c25 139 97 194 258 194c51 0 115 -7 166 -21l-17 -72c-51 11 -112 18 -156 18c-109 0 -151 -30 -169 -130l-49 -279c-3 -16 -4 -30 -4 -42c0 -60 33 -85 128 -85c44 0 106 6 159 16l3 -72
c-52 -11 -123 -19 -179 -19zM342 716l-30 49c45 27 75 46 116 78l34 -53c-37 -27 -69 -48 -120 -74z" />
    <glyph glyph-name="cacute" unicode="&#x107;" horiz-adv-x="407" 
d="M399 475l-18 -66c-34 11 -72 17 -104 17c-79 0 -109 -27 -126 -119l-32 -182c-1 -7 -2 -14 -2 -21c0 -31 16 -43 58 -43c44 0 102 14 151 33l11 -67c-49 -22 -108 -37 -171 -37c-92 0 -131 43 -131 109c0 7 1 21 4 38l32 181c24 135 81 179 210 179c36 0 83 -8 118 -22z
M242 550l-29 52c48 24 97 52 148 88l31 -55c-50 -35 -86 -55 -150 -85z" />
    <glyph glyph-name="Ccircumflex" unicode="&#x108;" horiz-adv-x="516" 
d="M250 -10c-141 0 -196 62 -196 154c0 15 2 31 5 49l51 289c25 139 97 194 258 194c51 0 115 -7 166 -21l-17 -72c-51 11 -112 18 -156 18c-109 0 -151 -30 -169 -130l-49 -279c-3 -16 -4 -30 -4 -42c0 -60 33 -85 128 -85c44 0 106 6 159 16l3 -72
c-52 -11 -123 -19 -179 -19zM463 715c-43 22 -59 32 -90 53c-33 -21 -62 -37 -94 -53l-25 46c44 25 80 46 128 78c33 -27 62 -49 109 -82z" />
    <glyph glyph-name="ccircumflex" unicode="&#x109;" horiz-adv-x="407" 
d="M399 475l-18 -66c-34 11 -72 17 -104 17c-79 0 -109 -27 -126 -119l-32 -182c-1 -7 -2 -14 -2 -21c0 -31 16 -43 58 -43c44 0 102 14 151 33l11 -67c-49 -22 -108 -37 -171 -37c-92 0 -131 43 -131 109c0 7 1 21 4 38l32 181c24 135 81 179 210 179c36 0 83 -8 118 -22z
M380 542c-41 23 -66 42 -93 64c-35 -27 -63 -43 -105 -64l-26 47c49 29 83 49 140 91c35 -36 68 -61 114 -95z" />
    <glyph glyph-name="Cdotaccent" unicode="&#x10a;" horiz-adv-x="516" 
d="M250 -10c-141 0 -196 62 -196 154c0 15 2 31 5 49l51 289c25 139 97 194 258 194c51 0 115 -7 166 -21l-17 -72c-51 11 -112 18 -156 18c-109 0 -151 -30 -169 -130l-49 -279c-3 -16 -4 -30 -4 -42c0 -60 33 -85 128 -85c44 0 106 6 159 16l3 -72
c-52 -11 -123 -19 -179 -19zM328 718l22 124l84 12l-22 -125z" />
    <glyph glyph-name="cdotaccent" unicode="&#x10b;" horiz-adv-x="407" 
d="M399 475l-18 -66c-34 11 -72 17 -104 17c-79 0 -109 -27 -126 -119l-32 -182c-1 -7 -2 -14 -2 -21c0 -31 16 -43 58 -43c44 0 102 14 151 33l11 -67c-49 -22 -108 -37 -171 -37c-92 0 -131 43 -131 109c0 7 1 21 4 38l32 181c24 135 81 179 210 179c36 0 83 -8 118 -22z
M234 562l22 124l84 12l-22 -125z" />
    <glyph glyph-name="Ccaron" unicode="&#x10c;" horiz-adv-x="516" 
d="M250 -10c-141 0 -196 62 -196 154c0 15 2 31 5 49l51 289c25 139 97 194 258 194c51 0 115 -7 166 -21l-17 -72c-51 11 -112 18 -156 18c-109 0 -151 -30 -169 -130l-49 -279c-3 -16 -4 -30 -4 -42c0 -60 33 -85 128 -85c44 0 106 6 159 16l3 -72
c-52 -11 -123 -19 -179 -19zM293 838c43 -22 59 -33 89 -53c34 21 63 37 94 53l26 -47c-45 -24 -81 -46 -129 -78c-32 27 -61 49 -109 82z" />
    <glyph glyph-name="ccaron" unicode="&#x10d;" horiz-adv-x="407" 
d="M399 475l-18 -66c-34 11 -72 17 -104 17c-79 0 -109 -27 -126 -119l-32 -182c-1 -7 -2 -14 -2 -21c0 -31 16 -43 58 -43c44 0 102 14 151 33l11 -67c-49 -22 -108 -37 -171 -37c-92 0 -131 43 -131 109c0 7 1 21 4 38l32 181c24 135 81 179 210 179c36 0 83 -8 118 -22z
M192 671c40 -23 67 -45 94 -67c37 27 63 43 104 67l27 -46c-49 -29 -83 -51 -141 -93c-34 36 -67 63 -113 97z" />
    <glyph glyph-name="Dcaron" unicode="&#x10e;" horiz-adv-x="593" 
d="M278 0h-238l117 666h224c138 0 188 -66 188 -154c0 -15 -1 -30 -4 -46l-51 -290c-21 -120 -72 -176 -236 -176zM433 192l48 273c2 13 4 25 4 41c0 53 -28 85 -115 85h-142l-91 -516h141c108 0 140 32 155 117zM284 838c43 -22 59 -33 89 -53c34 21 63 37 94 53l26 -47
c-45 -24 -81 -46 -129 -78c-32 27 -61 49 -109 82z" />
    <glyph glyph-name="dcaron" unicode="&#x10f;" horiz-adv-x="613" 
d="M580 573l19 113h84l-19 -113l-75 -108l-31 21l53 87h-31zM515 698l-123 -698h-72l5 59c-56 -48 -122 -69 -184 -69c-75 0 -102 41 -102 97c0 9 1 26 3 38l34 192c21 120 64 180 218 180c33 0 68 -5 101 -13l36 202zM335 142l48 272c-26 7 -71 12 -98 12
c-87 0 -112 -24 -129 -120l-31 -177c-2 -12 -3 -22 -3 -31c0 -24 9 -37 39 -37c58 0 119 36 174 81z" />
    <glyph glyph-name="Dcroat" unicode="&#x110;" horiz-adv-x="619" 
d="M42 304l12 68h77l52 294h224c138 0 188 -66 188 -154c0 -15 -1 -30 -4 -46l-51 -290c-21 -120 -72 -176 -236 -176h-238l53 304h-77zM459 192l48 273c2 13 4 25 4 41c0 53 -28 85 -115 85h-142l-39 -219h126l-12 -68h-126l-40 -229h141c108 0 140 32 155 117z" />
    <glyph glyph-name="dcroat" unicode="&#x111;" horiz-adv-x="522" 
d="M300 556l9 55h109l13 75l84 12l-16 -87h73l-9 -55h-73l-98 -556h-72l5 59c-56 -48 -122 -69 -184 -69c-75 0 -102 41 -102 97c0 9 1 26 3 38l34 192c21 120 64 180 218 180c33 0 68 -5 101 -13l13 72h-108zM335 142l48 272c-26 7 -71 12 -98 12c-87 0 -112 -24 -129 -120
l-31 -177c-2 -12 -3 -22 -3 -31c0 -24 9 -37 39 -37c58 0 119 36 174 81z" />
    <glyph glyph-name="Emacron" unicode="&#x112;" horiz-adv-x="534" 
d="M40 0l117 666h388l-14 -75h-302l-37 -213h280l-13 -74h-281l-41 -229h304l-13 -75h-388zM247 737l11 59h239l-11 -59h-239z" />
    <glyph glyph-name="emacron" unicode="&#x113;" horiz-adv-x="453" 
d="M134 180l-9 -50c-2 -11 -2 -18 -2 -22c0 -31 15 -49 67 -49c51 0 112 19 178 51l18 -61c-62 -34 -126 -59 -207 -59c-98 0 -137 46 -137 113c0 12 1 28 4 45l29 164c22 123 77 185 215 185c81 0 139 -38 139 -110c0 -82 -38 -123 -175 -169c-59 -20 -78 -25 -120 -38z
M237 283c81 24 115 55 115 95c0 32 -24 52 -68 52c-76 0 -111 -28 -125 -107l-12 -67c27 8 43 13 90 27zM178 566l10 59h239l-10 -59h-239z" />
    <glyph glyph-name="Ebreve" unicode="&#x114;" horiz-adv-x="534" 
d="M40 0l117 666h388l-14 -75h-302l-37 -213h280l-13 -74h-281l-41 -229h304l-13 -75h-388zM358 715c-63 0 -103 37 -116 79l46 27c13 -31 34 -51 75 -51c40 0 63 18 87 52l40 -29c-22 -44 -62 -78 -132 -78z" />
    <glyph glyph-name="ebreve" unicode="&#x115;" horiz-adv-x="453" 
d="M134 180l-9 -50c-2 -11 -2 -18 -2 -22c0 -31 15 -49 67 -49c51 0 112 19 178 51l18 -61c-62 -34 -126 -59 -207 -59c-98 0 -137 46 -137 113c0 12 1 28 4 45l29 164c22 123 77 185 215 185c81 0 139 -38 139 -110c0 -82 -38 -123 -175 -169c-59 -20 -78 -25 -120 -38z
M237 283c81 24 115 55 115 95c0 32 -24 52 -68 52c-76 0 -111 -28 -125 -107l-12 -67c27 8 43 13 90 27zM297 539c-65 0 -107 41 -121 86l47 26c13 -34 34 -57 78 -57c46 0 72 25 96 59l40 -29c-23 -44 -63 -85 -140 -85z" />
    <glyph glyph-name="Edotaccent" unicode="&#x116;" horiz-adv-x="534" 
d="M40 0l117 666h388l-14 -75h-302l-37 -213h280l-13 -74h-281l-41 -229h304l-13 -75h-388zM324 718l22 124l84 12l-22 -125z" />
    <glyph glyph-name="edotaccent" unicode="&#x117;" horiz-adv-x="453" 
d="M134 180l-9 -50c-2 -11 -2 -18 -2 -22c0 -31 15 -49 67 -49c51 0 112 19 178 51l18 -61c-62 -34 -126 -59 -207 -59c-98 0 -137 46 -137 113c0 12 1 28 4 45l29 164c22 123 77 185 215 185c81 0 139 -38 139 -110c0 -82 -38 -123 -175 -169c-59 -20 -78 -25 -120 -38z
M237 283c81 24 115 55 115 95c0 32 -24 52 -68 52c-76 0 -111 -28 -125 -107l-12 -67c27 8 43 13 90 27zM250 562l22 124l84 12l-22 -125z" />
    <glyph glyph-name="Eogonek" unicode="&#x118;" horiz-adv-x="534" 
d="M40 0l117 666h388l-14 -75h-302l-37 -213h280l-13 -74h-281l-41 -229h304l-13 -75h-46c-69 -39 -119 -80 -119 -121c0 -18 11 -32 41 -32c16 0 27 2 39 6l4 -47c-17 -9 -39 -13 -63 -13c-56 0 -91 26 -91 73c0 63 67 104 123 134h-276z" />
    <glyph glyph-name="eogonek" unicode="&#x119;" horiz-adv-x="453" 
d="M284 -194c-17 -9 -39 -13 -63 -13c-56 0 -91 26 -91 73c0 59 64 105 123 132c-23 -5 -48 -8 -74 -8c-98 0 -137 46 -137 113c0 12 1 28 4 45l29 164c22 123 77 185 215 185c81 0 139 -38 139 -110c0 -82 -38 -123 -175 -169c-59 -20 -78 -25 -120 -38l-9 -50
c-2 -11 -2 -18 -2 -22c0 -31 15 -49 67 -49c51 0 112 19 178 51l18 -61c-112 -65 -186 -122 -186 -170c0 -18 10 -32 41 -32c16 0 27 2 39 6zM237 283c81 24 115 55 115 95c0 32 -24 52 -68 52c-76 0 -111 -28 -125 -107l-12 -67c27 8 43 13 90 27z" />
    <glyph glyph-name="Ecaron" unicode="&#x11a;" horiz-adv-x="534" 
d="M40 0l117 666h388l-14 -75h-302l-37 -213h280l-13 -74h-281l-41 -229h304l-13 -75h-388zM278 838c43 -22 59 -33 89 -53c34 21 63 37 94 53l26 -47c-45 -24 -81 -46 -129 -78c-32 27 -61 49 -109 82z" />
    <glyph glyph-name="ecaron" unicode="&#x11b;" horiz-adv-x="453" 
d="M134 180l-9 -50c-2 -11 -2 -18 -2 -22c0 -31 15 -49 67 -49c51 0 112 19 178 51l18 -61c-62 -34 -126 -59 -207 -59c-98 0 -137 46 -137 113c0 12 1 28 4 45l29 164c22 123 77 185 215 185c81 0 139 -38 139 -110c0 -82 -38 -123 -175 -169c-59 -20 -78 -25 -120 -38z
M237 283c81 24 115 55 115 95c0 32 -24 52 -68 52c-76 0 -111 -28 -125 -107l-12 -67c27 8 43 13 90 27zM209 671c40 -23 67 -45 94 -67c37 27 63 43 104 67l27 -46c-49 -29 -83 -51 -141 -93c-34 36 -67 63 -113 97z" />
    <glyph glyph-name="Gcircumflex" unicode="&#x11c;" horiz-adv-x="582" 
d="M248 -10c-140 0 -194 61 -194 151c0 13 1 30 4 47l52 294c23 130 81 194 259 194c55 0 127 -8 186 -26l-16 -71c-58 13 -129 21 -180 21c-113 0 -150 -34 -167 -128l-48 -274c-4 -21 -5 -38 -5 -50c0 -55 28 -83 122 -83c38 0 82 4 133 15l40 222h81l-48 -277
c-67 -24 -146 -35 -219 -35zM473 715c-43 22 -59 32 -90 53c-33 -21 -62 -37 -94 -53l-25 46c44 25 80 46 128 78c33 -27 62 -49 109 -82z" />
    <glyph glyph-name="gcircumflex" unicode="&#x11d;" horiz-adv-x="517" 
d="M473 462l-94 -536c-18 -102 -59 -133 -171 -133c-64 0 -150 20 -200 41l17 62c67 -24 129 -35 186 -35c62 0 78 19 87 71l25 141c-54 -43 -117 -63 -179 -63c-75 0 -103 41 -103 97c0 12 2 25 4 38l31 171c21 118 69 181 223 181c47 0 122 -13 174 -35zM338 160l45 253
c-26 7 -64 13 -98 13c-81 0 -112 -25 -129 -121l-28 -156c-2 -12 -4 -23 -4 -32c0 -23 10 -36 40 -36c52 0 122 35 174 79zM415 542c-41 23 -66 42 -93 64c-35 -27 -63 -43 -105 -64l-26 47c49 29 83 49 140 91c35 -36 68 -61 114 -95z" />
    <glyph glyph-name="Gbreve" unicode="&#x11e;" horiz-adv-x="582" 
d="M248 -10c-140 0 -194 61 -194 151c0 13 1 30 4 47l52 294c23 130 81 194 259 194c55 0 127 -8 186 -26l-16 -71c-58 13 -129 21 -180 21c-113 0 -150 -34 -167 -128l-48 -274c-4 -21 -5 -38 -5 -50c0 -55 28 -83 122 -83c38 0 82 4 133 15l40 222h81l-48 -277
c-67 -24 -146 -35 -219 -35zM382 715c-63 0 -103 37 -116 79l46 27c13 -31 34 -51 75 -51c40 0 63 18 87 52l40 -29c-22 -44 -62 -78 -132 -78z" />
    <glyph glyph-name="gbreve" unicode="&#x11f;" horiz-adv-x="517" 
d="M473 462l-94 -536c-18 -102 -59 -133 -171 -133c-64 0 -150 20 -200 41l17 62c67 -24 129 -35 186 -35c62 0 78 19 87 71l25 141c-54 -43 -117 -63 -179 -63c-75 0 -103 41 -103 97c0 12 2 25 4 38l31 171c21 118 69 181 223 181c47 0 122 -13 174 -35zM338 160l45 253
c-26 7 -64 13 -98 13c-81 0 -112 -25 -129 -121l-28 -156c-2 -12 -4 -23 -4 -32c0 -23 10 -36 40 -36c52 0 122 35 174 79zM321 539c-65 0 -107 41 -121 86l47 26c13 -34 34 -57 78 -57c46 0 72 25 96 59l40 -29c-23 -44 -63 -85 -140 -85z" />
    <glyph glyph-name="Gdotaccent" unicode="&#x120;" horiz-adv-x="582" 
d="M248 -10c-140 0 -194 61 -194 151c0 13 1 30 4 47l52 294c23 130 81 194 259 194c55 0 127 -8 186 -26l-16 -71c-58 13 -129 21 -180 21c-113 0 -150 -34 -167 -128l-48 -274c-4 -21 -5 -38 -5 -50c0 -55 28 -83 122 -83c38 0 82 4 133 15l40 222h81l-48 -277
c-67 -24 -146 -35 -219 -35zM335 718l22 124l84 12l-22 -125z" />
    <glyph glyph-name="gdotaccent" unicode="&#x121;" horiz-adv-x="517" 
d="M473 462l-94 -536c-18 -102 -59 -133 -171 -133c-64 0 -150 20 -200 41l17 62c67 -24 129 -35 186 -35c62 0 78 19 87 71l25 141c-54 -43 -117 -63 -179 -63c-75 0 -103 41 -103 97c0 12 2 25 4 38l31 171c21 118 69 181 223 181c47 0 122 -13 174 -35zM338 160l45 253
c-26 7 -64 13 -98 13c-81 0 -112 -25 -129 -121l-28 -156c-2 -12 -4 -23 -4 -32c0 -23 10 -36 40 -36c52 0 122 35 174 79zM278 562l22 124l84 12l-22 -125z" />
    <glyph glyph-name="Gcommaaccent" unicode="&#x122;" horiz-adv-x="582" 
d="M248 -10c-140 0 -194 61 -194 151c0 13 1 30 4 47l52 294c23 130 81 194 259 194c55 0 127 -8 186 -26l-16 -71c-58 13 -129 21 -180 21c-113 0 -150 -34 -167 -128l-48 -274c-4 -21 -5 -38 -5 -50c0 -55 28 -83 122 -83c38 0 82 4 133 15l40 222h81l-48 -277
c-67 -24 -146 -35 -219 -35zM206 -158l19 107h82l-19 -107l-67 -101l-33 22l48 79h-30z" />
    <glyph glyph-name="gcommaaccent" unicode="&#x123;" horiz-adv-x="517" 
d="M373 656l-19 -113h-84l19 113l66 95l31 -21l-44 -74h31zM473 462l-94 -536c-18 -102 -59 -133 -171 -133c-64 0 -150 20 -200 41l17 62c67 -24 129 -35 186 -35c62 0 78 19 87 71l25 141c-54 -43 -117 -63 -179 -63c-75 0 -103 41 -103 97c0 12 2 25 4 38l31 171
c21 118 69 181 223 181c47 0 122 -13 174 -35zM338 160l45 253c-26 7 -64 13 -98 13c-81 0 -112 -25 -129 -121l-28 -156c-2 -12 -4 -23 -4 -32c0 -23 10 -36 40 -36c52 0 122 35 174 79z" />
    <glyph glyph-name="Hcircumflex" unicode="&#x124;" horiz-adv-x="628" 
d="M414 0l53 303h-290l-53 -303h-84l117 666h84l-51 -289h290l51 289h84l-117 -666h-84zM485 715c-43 22 -59 32 -90 53c-33 -21 -62 -37 -94 -53l-25 46c44 25 80 46 128 78c33 -27 62 -49 109 -82z" />
    <glyph glyph-name="hcircumflex" unicode="&#x125;" horiz-adv-x="530" 
d="M328 0l66 375c1 5 2 13 2 17c0 20 -10 27 -34 27c-49 0 -124 -36 -184 -73l-61 -346h-82l121 686l84 12l-47 -270c50 33 143 69 199 69c61 0 87 -33 87 -86c0 -11 -1 -26 -4 -42l-65 -369h-82zM300 745c-43 22 -59 32 -90 53c-33 -21 -62 -37 -94 -53l-25 46
c44 25 80 46 128 78c33 -27 62 -49 109 -82z" />
    <glyph glyph-name="Hbar" unicode="&#x126;" horiz-adv-x="638" 
d="M54 510l10 55h80l18 101h84l-18 -101h290l18 101h84l-18 -101h83l-10 -55h-82l-90 -510h-84l53 303h-290l-53 -303h-84l89 510h-80zM195 377h290l23 133h-290z" />
    <glyph glyph-name="hbar" unicode="&#x127;" horiz-adv-x="530" 
d="M74 552l9 54h59l14 80l84 12l-16 -92h121l-9 -54h-122l-21 -124c50 33 143 69 199 69c61 0 87 -33 87 -86c0 -11 -1 -26 -4 -42l-65 -369h-82l66 375c1 5 2 13 2 17c0 20 -10 27 -34 27c-49 0 -124 -36 -184 -73l-61 -346h-82l97 552h-58z" />
    <glyph glyph-name="Itilde" unicode="&#x128;" horiz-adv-x="264" 
d="M45 0l117 666h84l-117 -666h-84zM276 724c-45 0 -76 38 -108 38c-24 0 -42 -19 -59 -35l-30 31c20 33 54 62 96 62c41 0 72 -38 105 -38c21 0 32 9 49 29l35 -25c-21 -37 -44 -62 -88 -62z" />
    <glyph glyph-name="itilde" unicode="&#x129;" horiz-adv-x="242" 
d="M35 0l85 481l84 12l-87 -493h-82zM234 554c-45 0 -76 38 -108 38c-24 0 -41 -19 -58 -35l-31 31c20 33 54 62 96 62c41 0 72 -38 106 -38c20 0 31 9 49 29l35 -25c-21 -37 -45 -62 -89 -62z" />
    <glyph glyph-name="Imacron" unicode="&#x12a;" horiz-adv-x="264" 
d="M45 0l117 666h84l-117 -666h-84zM93 737l11 59h239l-11 -59h-239z" />
    <glyph glyph-name="imacron" unicode="&#x12b;" horiz-adv-x="242" 
d="M35 0l85 481l84 12l-87 -493h-82zM53 566l10 59h239l-10 -59h-239z" />
    <glyph glyph-name="Ibreve" unicode="&#x12c;" horiz-adv-x="264" 
d="M45 0l117 666h84l-117 -666h-84zM218 715c-63 0 -103 37 -116 79l46 27c13 -31 34 -51 75 -51c40 0 63 18 87 52l40 -29c-22 -44 -62 -78 -132 -78z" />
    <glyph glyph-name="ibreve" unicode="&#x12d;" horiz-adv-x="242" 
d="M35 0l85 481l84 12l-87 -493h-82zM174 539c-65 0 -107 41 -121 86l47 26c13 -34 34 -57 78 -57c46 0 72 25 96 59l40 -29c-23 -44 -63 -85 -140 -85z" />
    <glyph glyph-name="Iogonek" unicode="&#x12e;" horiz-adv-x="264" 
d="M114 -194c-17 -9 -39 -13 -63 -13c-56 0 -91 26 -91 73c0 53 41 103 85 134l117 666h84l-117 -666c-69 -39 -99 -77 -99 -121c0 -18 11 -32 41 -32c16 0 27 2 39 6z" />
    <glyph glyph-name="iogonek" unicode="&#x12f;" horiz-adv-x="242" 
d="M102 -194c-17 -9 -39 -13 -63 -13c-56 0 -91 26 -91 73c0 56 42 102 87 134l85 481l84 12l-87 -493c-65 -39 -99 -84 -99 -121c0 -18 11 -32 41 -32c16 0 27 2 39 6zM134 562l22 124l84 12l-22 -125z" />
    <glyph glyph-name="Idotaccent" unicode="&#x130;" horiz-adv-x="264" 
d="M45 0l117 666h84l-117 -666h-84zM171 718l22 124l84 12l-22 -125z" />
    <glyph glyph-name="dotlessi" unicode="&#x131;" horiz-adv-x="242" 
d="M35 0l85 481l84 12l-87 -493h-82z" />
    <glyph glyph-name="IJ" unicode="&#x132;" horiz-adv-x="518" 
d="M45 0l117 666h84l-117 -666h-84zM505 666l-120 -682c-12 -69 -36 -87 -156 -182l-44 61c103 79 111 91 119 136l117 667h84z" />
    <glyph glyph-name="ij" unicode="&#x133;" horiz-adv-x="479" 
d="M134 562l22 124l84 12l-22 -125zM35 0l85 481l84 12l-87 -493h-82zM446 493l-93 -526c-10 -59 -18 -77 -147 -174l-42 58c90 68 101 80 110 130l88 500zM376 562l22 124l84 12l-22 -125z" />
    <glyph glyph-name="Jcircumflex" unicode="&#x134;" horiz-adv-x="254" 
d="M241 666l-120 -682c-12 -69 -36 -87 -156 -182l-44 61c103 79 111 91 119 136l117 667h84zM305 715c-43 22 -59 32 -90 53c-33 -21 -62 -37 -94 -53l-25 46c44 25 80 46 128 78c33 -27 62 -49 109 -82z" />
    <glyph glyph-name="jcircumflex" unicode="&#x135;" horiz-adv-x="237" 
d="M204 493l-93 -526c-10 -59 -18 -77 -147 -174l-42 58c90 68 101 80 110 130l88 500zM271 542c-41 23 -66 42 -93 64c-35 -27 -63 -43 -105 -64l-26 47c49 29 83 49 140 91c35 -36 68 -61 114 -95z" />
    <glyph glyph-name="Kcommaaccent" unicode="&#x136;" horiz-adv-x="577" 
d="M405 0l-199 339l287 327h106l-300 -329l199 -337h-93zM40 0l117 666h84l-117 -666h-84zM191 -158l19 107h82l-19 -107l-67 -101l-33 22l48 79h-30z" />
    <glyph glyph-name="kcommaaccent" unicode="&#x137;" horiz-adv-x="476" 
d="M315 0l-128 246l207 249l79 -20l-198 -230l130 -245h-90zM35 0l121 686l84 12l-123 -698h-82zM141 -158l19 107h82l-19 -107l-67 -101l-33 22l48 79h-30z" />
    <glyph glyph-name="kgreenlandic" unicode="&#x138;" horiz-adv-x="476" 
d="M315 0l-128 246l200 241h96l-208 -242l130 -245h-90zM35 0l86 487h82l-86 -487h-82z" />
    <glyph glyph-name="Lacute" unicode="&#x139;" horiz-adv-x="499" 
d="M40 0l118 666h84l-105 -591h290l-13 -75h-374zM209 716l-30 49c45 27 75 46 116 78l34 -53c-37 -27 -69 -48 -120 -74z" />
    <glyph glyph-name="lacute" unicode="&#x13a;" horiz-adv-x="242" 
d="M35 0l121 686l84 12l-123 -698h-82zM196 746l-30 49c45 27 75 46 116 78l34 -53c-37 -27 -69 -48 -120 -74z" />
    <glyph glyph-name="Lcommaaccent" unicode="&#x13b;" horiz-adv-x="499" 
d="M40 0l118 666h84l-105 -591h290l-13 -75h-374zM167 -158l19 107h82l-19 -107l-67 -101l-33 22l48 79h-30z" />
    <glyph glyph-name="lcommaaccent" unicode="&#x13c;" horiz-adv-x="242" 
d="M35 0l121 686l84 12l-123 -698h-82zM7 -158l19 107h82l-19 -107l-67 -101l-33 22l48 79h-30z" />
    <glyph glyph-name="Lcaron" unicode="&#x13d;" horiz-adv-x="499" 
d="M363 573l19 113h84l-19 -113l-75 -108l-31 21l53 87h-31zM40 0l118 666h84l-105 -591h290l-13 -75h-374z" />
    <glyph glyph-name="lcaron" unicode="&#x13e;" horiz-adv-x="370" 
d="M35 0l121 686l84 12l-123 -698h-82zM322 573l19 113h84l-19 -113l-75 -108l-31 21l53 87h-31z" />
    <glyph glyph-name="Ldot" unicode="&#x13f;" horiz-adv-x="499" 
d="M292 305l21 115h84l-21 -115h-84zM40 0l118 666h84l-105 -591h290l-13 -75h-374z" />
    <glyph glyph-name="ldot" unicode="&#x140;" horiz-adv-x="349" 
d="M35 0l121 686l84 12l-123 -698h-82zM239 228l21 115h84l-21 -115h-84z" />
    <glyph glyph-name="Lslash" unicode="&#x141;" horiz-adv-x="522" 
d="M43 246l-17 56l98 45l56 319h85l-50 -280l156 74l17 -57l-185 -86l-43 -242h290l-13 -75h-374l49 277z" />
    <glyph glyph-name="lslash" unicode="&#x142;" horiz-adv-x="272" 
d="M32 249l-17 56l91 42l59 339l85 12l-55 -312l82 39l17 -57l-111 -51l-56 -317h-83l49 278z" />
    <glyph glyph-name="Nacute" unicode="&#x143;" horiz-adv-x="657" 
d="M413 0l-191 568l-100 -568h-82l117 666h112l192 -576l101 576h82l-117 -666h-114zM389 716l-30 49c45 27 75 46 116 78l34 -53c-37 -27 -69 -48 -120 -74z" />
    <glyph glyph-name="nacute" unicode="&#x144;" horiz-adv-x="530" 
d="M392 497c61 0 87 -33 87 -86c0 -11 -1 -26 -4 -42l-65 -369h-82l66 375c1 6 2 13 2 17c0 20 -10 27 -34 27c-49 0 -124 -36 -184 -73l-61 -346h-82l85 481l72 12l-6 -69c48 34 148 73 206 73zM273 550l-29 52c48 24 97 52 148 88l31 -55c-50 -35 -86 -55 -150 -85z" />
    <glyph glyph-name="Ncommaaccent" unicode="&#x145;" horiz-adv-x="657" 
d="M413 0l-191 568l-100 -568h-82l117 666h112l192 -576l101 576h82l-117 -666h-114zM216 -158l19 107h82l-19 -107l-67 -101l-33 22l48 79h-30z" />
    <glyph glyph-name="ncommaaccent" unicode="&#x146;" horiz-adv-x="530" 
d="M392 497c61 0 87 -33 87 -86c0 -11 -1 -26 -4 -42l-65 -369h-82l66 375c1 6 2 13 2 17c0 20 -10 27 -34 27c-49 0 -124 -36 -184 -73l-61 -346h-82l85 481l72 12l-6 -69c48 34 148 73 206 73zM162 -158l19 107h82l-19 -107l-67 -101l-33 22l48 79h-30z" />
    <glyph glyph-name="Ncaron" unicode="&#x147;" horiz-adv-x="657" 
d="M413 0l-191 568l-100 -568h-82l117 666h112l192 -576l101 576h82l-117 -666h-114zM328 838c43 -22 59 -33 89 -53c34 21 63 37 94 53l26 -47c-45 -24 -81 -46 -129 -78c-32 27 -61 49 -109 82z" />
    <glyph glyph-name="ncaron" unicode="&#x148;" horiz-adv-x="530" 
d="M392 497c61 0 87 -33 87 -86c0 -11 -1 -26 -4 -42l-65 -369h-82l66 375c1 6 2 13 2 17c0 20 -10 27 -34 27c-49 0 -124 -36 -184 -73l-61 -346h-82l85 481l72 12l-6 -69c48 34 148 73 206 73zM229 671c40 -23 67 -45 94 -67c37 27 63 43 104 67l27 -46
c-49 -29 -83 -51 -141 -93c-34 36 -67 63 -113 97z" />
    <glyph glyph-name="Eng" unicode="&#x14a;" horiz-adv-x="657" 
d="M413 0l-191 568l-100 -568h-82l117 666h112l192 -576l101 576h82l-123 -699c-10 -59 -18 -77 -147 -174l-42 58c90 68 101 80 110 130l3 19h-32z" />
    <glyph glyph-name="eng" unicode="&#x14b;" horiz-adv-x="530" 
d="M325 -19l69 394c1 6 2 13 2 17c0 20 -10 27 -34 27c-49 0 -124 -36 -184 -73l-61 -346h-82l85 481l72 12l-6 -69c48 34 148 73 206 73c61 0 87 -33 87 -86c0 -11 -1 -26 -4 -42l-71 -402c-10 -59 -18 -77 -147 -174l-42 58c90 68 101 80 110 130z" />
    <glyph glyph-name="Omacron" unicode="&#x14c;" horiz-adv-x="619" 
d="M263 -10c-146 0 -207 69 -207 165c0 11 1 27 4 43l48 273c25 140 98 205 272 205c136 0 210 -73 210 -173c0 -12 -2 -26 -4 -37l-49 -279c-21 -119 -88 -197 -274 -197zM455 194l48 273c2 12 4 24 4 36c0 62 -38 99 -136 99c-113 0 -163 -39 -180 -135l-47 -268
c-3 -17 -4 -29 -4 -39c0 -59 33 -96 136 -96c116 0 164 47 179 130zM270 737l11 59h239l-11 -59h-239z" />
    <glyph glyph-name="omacron" unicode="&#x14d;" horiz-adv-x="506" 
d="M207 -10c-139 0 -185 80 -166 185l25 142c21 119 89 180 229 180c112 0 170 -62 170 -145c0 -7 0 -18 -3 -34l-27 -153c-19 -110 -77 -175 -228 -175zM354 170l26 148c2 11 3 21 3 29c0 53 -31 79 -100 79c-80 0 -122 -38 -135 -114l-25 -141c-11 -67 5 -110 96 -110
c84 0 122 36 135 109zM184 566l10 59h239l-10 -59h-239z" />
    <glyph glyph-name="Obreve" unicode="&#x14e;" horiz-adv-x="619" 
d="M263 -10c-146 0 -207 69 -207 165c0 11 1 27 4 43l48 273c25 140 98 205 272 205c136 0 210 -73 210 -173c0 -12 -2 -26 -4 -37l-49 -279c-21 -119 -88 -197 -274 -197zM455 194l48 273c2 12 4 24 4 36c0 62 -38 99 -136 99c-113 0 -163 -39 -180 -135l-47 -268
c-3 -17 -4 -29 -4 -39c0 -59 33 -96 136 -96c116 0 164 47 179 130zM395 715c-63 0 -103 37 -116 79l46 27c13 -31 34 -51 75 -51c40 0 63 18 87 52l40 -29c-22 -44 -62 -78 -132 -78z" />
    <glyph glyph-name="obreve" unicode="&#x14f;" horiz-adv-x="506" 
d="M207 -10c-139 0 -185 80 -166 185l25 142c21 119 89 180 229 180c112 0 170 -62 170 -145c0 -7 0 -18 -3 -34l-27 -153c-19 -110 -77 -175 -228 -175zM354 170l26 148c2 11 3 21 3 29c0 53 -31 79 -100 79c-80 0 -122 -38 -135 -114l-25 -141c-11 -67 5 -110 96 -110
c84 0 122 36 135 109zM311 539c-65 0 -107 41 -121 86l47 26c13 -34 34 -57 78 -57c46 0 72 25 96 59l40 -29c-23 -44 -63 -85 -140 -85z" />
    <glyph glyph-name="Ohungarumlaut" unicode="&#x150;" horiz-adv-x="619" 
d="M263 -10c-146 0 -207 69 -207 165c0 11 1 27 4 43l48 273c25 140 98 205 272 205c136 0 210 -73 210 -173c0 -12 -2 -26 -4 -37l-49 -279c-21 -119 -88 -197 -274 -197zM455 194l48 273c2 12 4 24 4 36c0 62 -38 99 -136 99c-113 0 -163 -39 -180 -135l-47 -268
c-3 -17 -4 -29 -4 -39c0 -59 33 -96 136 -96c116 0 164 47 179 130zM309 715l-36 43c39 31 64 54 96 85l39 -48c-38 -36 -62 -54 -99 -80zM467 715l-36 43c39 31 64 54 96 85l39 -48c-38 -36 -62 -54 -99 -80z" />
    <glyph glyph-name="ohungarumlaut" unicode="&#x151;" horiz-adv-x="506" 
d="M207 -10c-139 0 -185 80 -166 185l25 142c21 119 89 180 229 180c112 0 170 -62 170 -145c0 -7 0 -18 -3 -34l-27 -153c-19 -110 -77 -175 -228 -175zM354 170l26 148c2 11 3 21 3 29c0 53 -31 79 -100 79c-80 0 -122 -38 -135 -114l-25 -141c-11 -67 5 -110 96 -110
c84 0 122 36 135 109zM229 536l-38 41c39 36 67 62 107 109l41 -46c-37 -42 -72 -73 -110 -104zM385 536l-38 41c39 36 67 62 108 109l40 -46c-37 -42 -71 -73 -110 -104z" />
    <glyph glyph-name="OE" unicode="&#x152;" horiz-adv-x="889" 
d="M783 0h-519c-146 0 -207 69 -207 165c0 11 1 27 4 43l46 253c25 140 98 205 272 205h521l-14 -75h-302l-37 -213h280l-13 -74h-281l-41 -229h304zM141 170c0 -59 33 -96 136 -96h131l91 518h-129c-113 0 -163 -39 -180 -135l-45 -248c-3 -17 -4 -29 -4 -39z" />
    <glyph glyph-name="oe" unicode="&#x153;" horiz-adv-x="751" 
d="M438 183l-9 -51c-8 -46 3 -73 65 -73c51 0 112 19 178 51l18 -61c-62 -34 -126 -59 -207 -59c-60 0 -101 24 -116 53c-42 -38 -88 -53 -160 -53c-139 0 -185 80 -166 185l25 142c21 119 81 180 225 180c52 0 108 -21 141 -63c40 46 87 63 162 63c81 0 139 -38 139 -110
c0 -82 -45 -123 -175 -166c-57 -19 -75 -25 -120 -38zM354 170l27 154c1 5 2 16 2 23c0 53 -31 79 -100 79c-80 0 -122 -38 -135 -114l-25 -141c-11 -67 5 -110 96 -110c84 0 122 36 135 109zM541 283c81 24 115 52 115 92c0 37 -24 55 -68 55c-76 0 -111 -28 -125 -107
l-12 -67c27 8 46 14 90 27z" />
    <glyph glyph-name="Racute" unicode="&#x154;" horiz-adv-x="627" 
d="M458 0l-124 242h-167l-43 -242h-84l118 666h238c125 0 176 -50 176 -131c0 -11 -1 -25 -3 -36l-17 -96c-14 -80 -41 -126 -132 -150l130 -253h-92zM469 409l16 90c2 11 3 20 3 28c0 48 -30 64 -98 64h-162l-48 -275h162c82 0 115 24 127 93zM347 716l-30 49
c45 27 75 46 116 78l34 -53c-37 -27 -69 -48 -120 -74z" />
    <glyph glyph-name="racute" unicode="&#x155;" horiz-adv-x="314" 
d="M323 497l3 -75c-55 -30 -106 -64 -152 -98l-57 -324h-82l85 481l73 12l-9 -80c39 32 88 62 139 84zM183 550l-29 52c48 24 97 52 148 88l31 -55c-50 -35 -86 -55 -150 -85z" />
    <glyph glyph-name="Rcommaaccent" unicode="&#x156;" horiz-adv-x="627" 
d="M458 0l-124 242h-167l-43 -242h-84l118 666h238c125 0 176 -50 176 -131c0 -11 -1 -25 -3 -36l-17 -96c-14 -80 -41 -126 -132 -150l130 -253h-92zM469 409l16 90c2 11 3 20 3 28c0 48 -30 64 -98 64h-162l-48 -275h162c82 0 115 24 127 93zM215 -158l19 107h82l-19 -107
l-67 -101l-33 22l48 79h-30z" />
    <glyph glyph-name="rcommaaccent" unicode="&#x157;" horiz-adv-x="314" 
d="M323 497l3 -75c-55 -30 -106 -64 -152 -98l-57 -324h-82l85 481l73 12l-9 -80c39 32 88 62 139 84zM8 -158l19 107h82l-19 -107l-67 -101l-33 22l48 79h-30z" />
    <glyph glyph-name="Rcaron" unicode="&#x158;" horiz-adv-x="627" 
d="M458 0l-124 242h-167l-43 -242h-84l118 666h238c125 0 176 -50 176 -131c0 -11 -1 -25 -3 -36l-17 -96c-14 -80 -41 -126 -132 -150l130 -253h-92zM469 409l16 90c2 11 3 20 3 28c0 48 -30 64 -98 64h-162l-48 -275h162c82 0 115 24 127 93zM288 838
c43 -22 59 -33 89 -53c34 21 63 37 94 53l26 -47c-45 -24 -81 -46 -129 -78c-32 27 -61 49 -109 82z" />
    <glyph glyph-name="rcaron" unicode="&#x159;" horiz-adv-x="314" 
d="M323 497l3 -75c-55 -30 -106 -64 -152 -98l-57 -324h-82l85 481l73 12l-9 -80c39 32 88 62 139 84zM136 671c40 -23 67 -45 94 -67c37 27 63 43 104 67l27 -46c-49 -29 -83 -51 -141 -93c-34 36 -67 63 -113 97z" />
    <glyph glyph-name="Sacute" unicode="&#x15a;" horiz-adv-x="534" 
d="M214 -10c-57 0 -135 14 -191 37l19 67c62 -19 123 -31 180 -31c107 0 135 29 149 109c4 22 7 39 7 52c0 42 -26 53 -123 78c-116 30 -151 67 -151 137c0 20 3 42 7 67c24 135 78 170 237 170c50 0 123 -9 175 -23l-15 -71c-56 13 -124 20 -165 20
c-113 0 -134 -18 -148 -98c-4 -23 -7 -43 -7 -55c0 -42 25 -54 117 -79c123 -33 158 -65 158 -131c0 -17 -3 -42 -8 -68c-21 -121 -60 -181 -241 -181zM333 716l-30 49c45 27 75 46 116 78l34 -53c-37 -27 -69 -48 -120 -74z" />
    <glyph glyph-name="sacute" unicode="&#x15b;" horiz-adv-x="411" 
d="M162 -10c-44 0 -104 10 -143 27l17 64c39 -13 88 -22 130 -22c71 0 85 12 94 66c7 41 -4 57 -82 93c-100 46 -117 90 -105 161c14 84 51 118 174 118c44 0 101 -9 138 -21l-14 -65c-38 10 -91 17 -126 17c-70 0 -83 -10 -92 -59c-8 -46 6 -56 68 -89
c113 -60 134 -84 120 -160c-17 -91 -46 -130 -179 -130zM222 550l-29 52c48 24 97 52 148 88l31 -55c-50 -35 -86 -55 -150 -85z" />
    <glyph glyph-name="Scircumflex" unicode="&#x15c;" horiz-adv-x="534" 
d="M214 -10c-57 0 -135 14 -191 37l19 67c62 -19 123 -31 180 -31c107 0 135 29 149 109c4 22 7 39 7 52c0 42 -26 53 -123 78c-116 30 -151 67 -151 137c0 20 3 42 7 67c24 135 78 170 237 170c50 0 123 -9 175 -23l-15 -71c-56 13 -124 20 -165 20
c-113 0 -134 -18 -148 -98c-4 -23 -7 -43 -7 -55c0 -42 25 -54 117 -79c123 -33 158 -65 158 -131c0 -17 -3 -42 -8 -68c-21 -121 -60 -181 -241 -181zM449 715c-43 22 -59 32 -90 53c-33 -21 -62 -37 -94 -53l-25 46c44 25 80 46 128 78c33 -27 62 -49 109 -82z" />
    <glyph glyph-name="scircumflex" unicode="&#x15d;" horiz-adv-x="411" 
d="M162 -10c-44 0 -104 10 -143 27l17 64c39 -13 88 -22 130 -22c71 0 85 12 94 66c7 41 -4 57 -82 93c-100 46 -117 90 -105 161c14 84 51 118 174 118c44 0 101 -9 138 -21l-14 -65c-38 10 -91 17 -126 17c-70 0 -83 -10 -92 -59c-8 -46 6 -56 68 -89
c113 -60 134 -84 120 -160c-17 -91 -46 -130 -179 -130zM361 542c-41 23 -66 42 -93 64c-35 -27 -63 -43 -105 -64l-26 47c49 29 83 49 140 91c35 -36 68 -61 114 -95z" />
    <glyph glyph-name="Scedilla" unicode="&#x15e;" horiz-adv-x="534" 
d="M182 -204c-25 0 -52 6 -74 14l12 40c21 -7 40 -10 62 -10c42 0 62 14 62 40c0 13 -12 23 -37 23c-12 0 -31 -1 -47 -3l-9 15l27 77c-51 4 -110 16 -155 35l19 67c62 -19 123 -31 180 -31c107 0 135 29 149 109c4 22 7 39 7 52c0 42 -26 53 -123 78
c-116 30 -151 67 -151 137c0 20 3 42 7 67c24 135 78 170 237 170c50 0 123 -9 175 -23l-15 -71c-56 13 -124 20 -165 20c-113 0 -134 -18 -148 -98c-4 -23 -7 -43 -7 -55c0 -42 25 -54 117 -79c123 -33 158 -65 158 -131c0 -17 -3 -42 -8 -68c-21 -119 -59 -179 -232 -181
l-18 -54c11 2 23 3 31 3c37 0 60 -20 60 -54c0 -53 -39 -89 -114 -89z" />
    <glyph glyph-name="scedilla" unicode="&#x15f;" horiz-adv-x="411" 
d="M133 -204c-25 0 -52 6 -74 14l12 40c21 -7 40 -10 62 -10c42 0 62 14 62 40c0 13 -12 23 -37 23c-12 0 -31 -1 -47 -3l-9 15l27 77c-38 3 -80 12 -110 25l17 64c39 -13 88 -22 130 -22c71 0 85 12 94 66c7 41 -4 57 -82 93c-100 46 -117 90 -105 161
c14 84 51 118 174 118c44 0 101 -9 138 -21l-14 -65c-38 10 -91 17 -126 17c-70 0 -83 -10 -92 -59c-8 -46 6 -56 68 -89c113 -60 134 -84 120 -160c-17 -88 -44 -127 -167 -130l-18 -54c11 2 23 3 31 3c37 0 60 -20 60 -54c0 -53 -39 -89 -114 -89z" />
    <glyph glyph-name="Scaron" unicode="&#x160;" horiz-adv-x="534" 
d="M214 -10c-57 0 -135 14 -191 37l19 67c62 -19 123 -31 180 -31c107 0 135 29 149 109c4 22 7 39 7 52c0 42 -26 53 -123 78c-116 30 -151 67 -151 137c0 20 3 42 7 67c24 135 78 170 237 170c50 0 123 -9 175 -23l-15 -71c-56 13 -124 20 -165 20
c-113 0 -134 -18 -148 -98c-4 -23 -7 -43 -7 -55c0 -42 25 -54 117 -79c123 -33 158 -65 158 -131c0 -17 -3 -42 -8 -68c-21 -121 -60 -181 -241 -181zM277 838c43 -22 59 -33 89 -53c34 21 63 37 94 53l26 -47c-45 -24 -81 -46 -129 -78c-32 27 -61 49 -109 82z" />
    <glyph glyph-name="scaron" unicode="&#x161;" horiz-adv-x="411" 
d="M162 -10c-44 0 -104 10 -143 27l17 64c39 -13 88 -22 130 -22c71 0 85 12 94 66c7 41 -4 57 -82 93c-100 46 -117 90 -105 161c14 84 51 118 174 118c44 0 101 -9 138 -21l-14 -65c-38 10 -91 17 -126 17c-70 0 -83 -10 -92 -59c-8 -46 6 -56 68 -89
c113 -60 134 -84 120 -160c-17 -91 -46 -130 -179 -130zM170 671c40 -23 67 -45 94 -67c37 27 63 43 104 67l27 -46c-49 -29 -83 -51 -141 -93c-34 36 -67 63 -113 97z" />
    <glyph glyph-name="Tcommaaccent" unicode="&#x162;" 
d="M364 591l-104 -591h-84l103 591h-197l13 75h480l-13 -75h-198zM148 -158l19 107h82l-19 -107l-67 -101l-33 22l48 79h-30z" />
    <glyph glyph-name="Tcommaaccent" unicode="&#x21a;" 
d="M364 591l-104 -591h-84l103 591h-197l13 75h480l-13 -75h-198zM148 -158l19 107h82l-19 -107l-67 -101l-33 22l48 79h-30z" />
    <glyph glyph-name="tcommaaccent" unicode="&#x163;" horiz-adv-x="363" 
d="M165 -10c-60 0 -88 34 -88 78c0 4 0 11 2 22l58 329h-86l12 68h86l21 120l84 11l-23 -131h134l-14 -68h-132l-58 -328c-1 -6 -1 -8 -1 -11c0 -14 8 -21 28 -21c27 0 56 6 90 21l19 -57c-42 -21 -84 -33 -132 -33zM105 -158l19 107h82l-19 -107l-67 -101l-33 22l48 79h-30
z" />
    <glyph glyph-name="tcommaaccent" unicode="&#x21b;" horiz-adv-x="363" 
d="M165 -10c-60 0 -88 34 -88 78c0 4 0 11 2 22l58 329h-86l12 68h86l21 120l84 11l-23 -131h134l-14 -68h-132l-58 -328c-1 -6 -1 -8 -1 -11c0 -14 8 -21 28 -21c27 0 56 6 90 21l19 -57c-42 -21 -84 -33 -132 -33zM105 -158l19 107h82l-19 -107l-67 -101l-33 22l48 79h-30
z" />
    <glyph glyph-name="Tcaron" unicode="&#x164;" 
d="M364 591l-104 -591h-84l103 591h-197l13 75h480l-13 -75h-198zM260 838c43 -22 59 -33 89 -53c34 21 63 37 94 53l26 -47c-45 -24 -81 -46 -129 -78c-32 27 -61 49 -109 82z" />
    <glyph glyph-name="tcaron" unicode="&#x165;" horiz-adv-x="366" 
d="M344 606l16 90h84l-16 -90l-56 -77l-31 24l36 53h-33zM165 -10c-60 0 -88 34 -88 78c0 4 0 11 2 22l58 329h-86l12 68h86l21 120l84 11l-23 -131h134l-14 -68h-132l-58 -328c-1 -6 -1 -8 -1 -11c0 -14 8 -21 28 -21c27 0 56 6 90 21l19 -57c-42 -21 -84 -33 -132 -33z
" />
    <glyph glyph-name="Tbar" unicode="&#x166;" 
d="M64 300l10 58h164l41 233h-197l13 75h480l-13 -75h-198l-41 -233h165l-11 -58h-164l-53 -300h-84l52 300h-164z" />
    <glyph glyph-name="tbar" unicode="&#x167;" horiz-adv-x="363" 
d="M21 225l9 58h87l24 136h-86l12 68h86l21 120l84 11l-23 -131h134l-14 -68h-132l-24 -136h125l-9 -58h-127l-23 -134c-1 -6 -1 -8 -1 -11c0 -14 8 -21 28 -21c27 0 56 6 90 21l19 -57c-42 -21 -84 -33 -132 -33c-60 0 -88 34 -88 78c0 4 0 11 2 22l24 135h-86z" />
    <glyph glyph-name="Utilde" unicode="&#x168;" horiz-adv-x="631" 
d="M271 -10c-142 0 -206 69 -206 163c0 10 1 24 4 40l83 473h84l-83 -473c-2 -12 -3 -27 -3 -37c0 -61 37 -92 132 -92c112 0 159 49 174 134l83 468h84l-84 -478c-20 -115 -83 -198 -268 -198zM465 724c-45 0 -76 38 -108 38c-24 0 -42 -19 -59 -35l-30 31
c20 33 54 62 96 62c41 0 72 -38 105 -38c21 0 32 9 49 29l35 -25c-21 -37 -44 -62 -88 -62z" />
    <glyph glyph-name="utilde" unicode="&#x169;" horiz-adv-x="530" 
d="M199 493l-67 -381c-1 -6 -2 -13 -2 -17c0 -20 10 -27 34 -27c49 0 124 36 184 73l59 340l85 12l-87 -493h-70l5 63c-48 -34 -148 -73 -206 -73c-61 0 -87 33 -87 86c0 11 1 26 4 42l64 363zM383 554c-45 0 -76 38 -108 38c-24 0 -41 -19 -58 -35l-31 31
c20 33 54 62 96 62c41 0 72 -38 106 -38c20 0 31 9 49 29l35 -25c-21 -37 -45 -62 -89 -62z" />
    <glyph glyph-name="Umacron" unicode="&#x16a;" horiz-adv-x="631" 
d="M271 -10c-142 0 -206 69 -206 163c0 10 1 24 4 40l83 473h84l-83 -473c-2 -12 -3 -27 -3 -37c0 -61 37 -92 132 -92c112 0 159 49 174 134l83 468h84l-84 -478c-20 -115 -83 -198 -268 -198zM273 737l11 59h239l-11 -59h-239z" />
    <glyph glyph-name="umacron" unicode="&#x16b;" horiz-adv-x="530" 
d="M199 493l-67 -381c-1 -6 -2 -13 -2 -17c0 -20 10 -27 34 -27c49 0 124 36 184 73l59 340l85 12l-87 -493h-70l5 63c-48 -34 -148 -73 -206 -73c-61 0 -87 33 -87 86c0 11 1 26 4 42l64 363zM204 566l10 59h239l-10 -59h-239z" />
    <glyph glyph-name="Ubreve" unicode="&#x16c;" horiz-adv-x="631" 
d="M271 -10c-142 0 -206 69 -206 163c0 10 1 24 4 40l83 473h84l-83 -473c-2 -12 -3 -27 -3 -37c0 -61 37 -92 132 -92c112 0 159 49 174 134l83 468h84l-84 -478c-20 -115 -83 -198 -268 -198zM402 715c-63 0 -103 37 -116 79l46 27c13 -31 34 -51 75 -51c40 0 63 18 87 52
l40 -29c-22 -44 -62 -78 -132 -78z" />
    <glyph glyph-name="ubreve" unicode="&#x16d;" horiz-adv-x="530" 
d="M199 493l-67 -381c-1 -6 -2 -13 -2 -17c0 -20 10 -27 34 -27c49 0 124 36 184 73l59 340l85 12l-87 -493h-70l5 63c-48 -34 -148 -73 -206 -73c-61 0 -87 33 -87 86c0 11 1 26 4 42l64 363zM323 539c-65 0 -107 41 -121 86l47 26c13 -34 34 -57 78 -57c46 0 72 25 96 59
l40 -29c-23 -44 -63 -85 -140 -85z" />
    <glyph glyph-name="Uring" unicode="&#x16e;" horiz-adv-x="631" 
d="M271 -10c-142 0 -206 69 -206 163c0 10 1 24 4 40l83 473h84l-83 -473c-2 -12 -3 -27 -3 -37c0 -61 37 -92 132 -92c112 0 159 49 174 134l83 468h84l-84 -478c-20 -115 -83 -198 -268 -198zM399 711c-37 0 -60 23 -60 56c0 50 30 81 83 81c39 0 60 -23 60 -53
c0 -45 -25 -84 -83 -84zM417 815c-23 0 -39 -17 -39 -43c0 -16 7 -26 26 -26c26 0 38 19 38 44c0 16 -7 25 -25 25z" />
    <glyph glyph-name="uring" unicode="&#x16f;" horiz-adv-x="530" 
d="M199 493l-67 -381c-1 -6 -2 -13 -2 -17c0 -20 10 -27 34 -27c49 0 124 36 184 73l59 340l85 12l-87 -493h-70l5 63c-48 -34 -148 -73 -206 -73c-61 0 -87 33 -87 86c0 11 1 26 4 42l64 363zM313 535c-39 0 -63 25 -63 59c0 51 33 86 88 86c40 0 63 -26 63 -57
c0 -46 -27 -88 -88 -88zM333 646c-26 0 -43 -20 -43 -47c0 -16 6 -29 29 -29c27 0 41 22 41 48c0 17 -9 28 -27 28z" />
    <glyph glyph-name="Uhungarumlaut" unicode="&#x170;" horiz-adv-x="631" 
d="M271 -10c-142 0 -206 69 -206 163c0 10 1 24 4 40l83 473h84l-83 -473c-2 -12 -3 -27 -3 -37c0 -61 37 -92 132 -92c112 0 159 49 174 134l83 468h84l-84 -478c-20 -115 -83 -198 -268 -198zM312 715l-36 43c39 31 64 54 96 85l39 -48c-38 -36 -62 -54 -99 -80zM470 715
l-36 43c39 31 64 54 96 85l39 -48c-38 -36 -62 -54 -99 -80z" />
    <glyph glyph-name="uhungarumlaut" unicode="&#x171;" horiz-adv-x="530" 
d="M199 493l-67 -381c-1 -6 -2 -13 -2 -17c0 -20 10 -27 34 -27c49 0 124 36 184 73l59 340l85 12l-87 -493h-70l5 63c-48 -34 -148 -73 -206 -73c-61 0 -87 33 -87 86c0 11 1 26 4 42l64 363zM229 536l-38 41c39 36 67 62 107 109l41 -46c-37 -42 -72 -73 -110 -104z
M385 536l-38 41c39 36 67 62 108 109l40 -46c-37 -42 -71 -73 -110 -104z" />
    <glyph glyph-name="Uogonek" unicode="&#x172;" horiz-adv-x="631" 
d="M337 -194c-17 -9 -39 -13 -63 -13c-56 0 -91 26 -91 73c0 58 59 98 117 125c-10 -1 -19 -1 -29 -1c-142 0 -206 69 -206 163c0 10 1 24 4 40l83 473h84l-83 -473c-2 -12 -3 -27 -3 -37c0 -61 37 -92 132 -92c112 0 159 49 174 134l83 468h84l-84 -478
c-15 -83 -52 -149 -140 -180c-100 -45 -146 -91 -146 -129c0 -18 11 -32 41 -32c16 0 27 2 39 6z" />
    <glyph glyph-name="uogonek" unicode="&#x173;" horiz-adv-x="530" 
d="M370 -194c-17 -9 -39 -13 -63 -13c-56 0 -91 26 -91 73c0 57 63 104 119 134l5 63c-48 -34 -148 -73 -206 -73c-61 0 -87 33 -87 86c0 11 1 26 4 42l64 363l84 12l-67 -381c-1 -6 -2 -13 -2 -17c0 -20 10 -27 34 -27c49 0 124 36 184 73l59 340l85 12l-87 -493
c-69 -39 -119 -80 -119 -121c0 -18 11 -32 41 -32c16 0 27 2 39 6z" />
    <glyph glyph-name="Wcircumflex" unicode="&#x174;" horiz-adv-x="906" 
d="M670 0h-122l-42 597l-237 -597h-116l-61 666h79l50 -590l241 590h113l46 -590l240 590h85zM623 715c-43 22 -59 32 -90 53c-33 -21 -62 -37 -94 -53l-25 46c44 25 80 46 128 78c33 -27 62 -49 109 -82z" />
    <glyph glyph-name="wcircumflex" unicode="&#x175;" horiz-adv-x="685" 
d="M342 387l-18 89l72 14l81 -423c37 97 51 139 95 263c12 35 13 65 13 84c0 21 -2 43 -8 65c27 5 49 9 75 14c4 -26 8 -51 8 -77c0 -35 -4 -70 -20 -115c-32 -88 -61 -167 -114 -301h-110l-55 285l-151 -285h-106c0 183 -8 355 -42 479l75 12c25 -121 39 -267 36 -425z
M473 542c-41 23 -66 42 -93 64c-35 -27 -63 -43 -105 -64l-26 47c49 29 83 49 140 91c35 -36 68 -61 114 -95z" />
    <glyph glyph-name="Ycircumflex" unicode="&#x176;" horiz-adv-x="535" 
d="M298 198l-35 -198h-84l36 205l-138 461h81l113 -376l237 376h95zM434 715c-43 22 -59 32 -90 53c-33 -21 -62 -37 -94 -53l-25 46c44 25 80 46 128 78c33 -27 62 -49 109 -82z" />
    <glyph glyph-name="ycircumflex" unicode="&#x177;" horiz-adv-x="434" 
d="M244 0c-54 -99 -101 -165 -232 -208l-22 63c78 28 124 66 169 145h-29l-76 480l79 11l62 -426l138 288c15 31 18 48 18 74c0 14 -3 37 -8 54l79 12c4 -17 8 -40 8 -64c0 -26 -1 -53 -17 -85zM350 542c-41 23 -66 42 -93 64c-35 -27 -63 -43 -105 -64l-26 47
c49 29 83 49 140 91c35 -36 68 -61 114 -95z" />
    <glyph glyph-name="Ydieresis" unicode="&#x178;" horiz-adv-x="535" 
d="M298 198l-35 -198h-84l36 205l-138 461h81l113 -376l237 376h95zM205 732l13 75h79l-13 -75h-79zM392 732l13 75h79l-13 -75h-79z" />
    <glyph glyph-name="Zacute" unicode="&#x179;" horiz-adv-x="570" 
d="M49 0l-2 73l408 519h-330l13 74h412v-73l-408 -520h334l-12 -73h-415zM322 716l-30 49c45 27 75 46 116 78l34 -53c-37 -27 -69 -48 -120 -74z" />
    <glyph glyph-name="zacute" unicode="&#x17a;" horiz-adv-x="452" 
d="M35 0l-5 65l296 356h-241l8 66h329v-65l-296 -356h239l-10 -66h-320zM223 550l-29 52c48 24 97 52 148 88l31 -55c-50 -35 -86 -55 -150 -85z" />
    <glyph glyph-name="Zdotaccent" unicode="&#x17b;" horiz-adv-x="570" 
d="M49 0l-2 73l408 519h-330l13 74h412v-73l-408 -520h334l-12 -73h-415zM307 718l22 124l84 12l-22 -125z" />
    <glyph glyph-name="zdotaccent" unicode="&#x17c;" horiz-adv-x="452" 
d="M35 0l-5 65l296 356h-241l8 66h329v-65l-296 -356h239l-10 -66h-320zM229 562l22 124l84 12l-22 -125z" />
    <glyph glyph-name="Zcaron" unicode="&#x17d;" horiz-adv-x="570" 
d="M49 0l-2 73l408 519h-330l13 74h412v-73l-408 -520h334l-12 -73h-415zM263 838c43 -22 59 -33 89 -53c34 21 63 37 94 53l26 -47c-45 -24 -81 -46 -129 -78c-32 27 -61 49 -109 82z" />
    <glyph glyph-name="zcaron" unicode="&#x17e;" horiz-adv-x="452" 
d="M35 0l-5 65l296 356h-241l8 66h329v-65l-296 -356h239l-10 -66h-320zM179 671c40 -23 67 -45 94 -67c37 27 63 43 104 67l27 -46c-49 -29 -83 -51 -141 -93c-34 36 -67 63 -113 97z" />
    <glyph glyph-name="florin" unicode="&#x192;" horiz-adv-x="497" 
d="M509 625c-24 7 -55 12 -76 12c-53 0 -68 -11 -81 -61l-39 -150h133l-17 -69h-135l-114 -435c-23 -86 -49 -119 -137 -119c-27 0 -64 8 -86 19l17 63c18 -7 41 -13 61 -13c41 0 53 14 65 59l112 426h-87l19 69h87l42 160c21 82 53 120 152 120c37 0 74 -8 100 -18z" />
    <glyph glyph-name="Aringacute" unicode="&#x1fa;" horiz-adv-x="621" 
d="M465 0l-24 162h-278l-83 -162h-88l335 666h120l104 -666h-86zM379 608l-182 -374h233zM395 694c-37 0 -60 23 -60 56c0 50 30 81 83 81c39 0 60 -23 60 -53c0 -45 -25 -84 -83 -84zM413 798c-23 0 -39 -17 -39 -43c0 -16 7 -26 26 -26c26 0 38 19 38 44
c0 16 -7 25 -25 25zM427 851l-27 43c37 22 65 39 101 66l31 -47c-33 -22 -73 -45 -105 -62z" />
    <glyph glyph-name="aringacute" unicode="&#x1fb;" horiz-adv-x="513" 
d="M470 464l-82 -464h-68l3 59c-54 -48 -120 -69 -182 -69c-75 0 -103 41 -103 97c0 12 2 25 4 38l34 193c21 118 65 179 219 179c60 0 127 -15 175 -33zM332 146l47 268c-26 7 -60 12 -94 12c-75 0 -112 -23 -129 -119l-31 -176c-2 -12 -4 -25 -4 -34c0 -23 10 -36 40 -36
c61 0 115 34 171 85zM322 534c-37 0 -60 23 -60 56c0 50 30 81 83 81c39 0 60 -23 60 -53c0 -45 -25 -84 -83 -84zM340 638c-23 0 -39 -17 -39 -43c0 -16 7 -26 26 -26c26 0 38 19 38 44c0 16 -7 25 -25 25zM354 691l-27 43c37 22 65 39 101 66l31 -47
c-33 -22 -73 -45 -105 -62z" />
    <glyph glyph-name="AEacute" unicode="&#x1fc;" horiz-adv-x="847" 
d="M465 0l-24 162h-278l-83 -162h-88l335 666h531l-14 -75h-386l34 -213h293l-13 -74h-269l36 -229h215l-13 -75h-276zM379 608l-182 -374h233zM435 716l-30 49c45 27 75 46 116 78l34 -53c-37 -27 -69 -48 -120 -74z" />
    <glyph glyph-name="aeacute" unicode="&#x1fd;" horiz-adv-x="718" 
d="M396 198l-12 -65c-1 -7 -2 -15 -2 -21c0 -35 21 -53 74 -53s114 17 180 49l18 -62c-65 -35 -135 -56 -208 -56c-63 0 -105 17 -127 53c-53 -35 -112 -53 -181 -53c-76 0 -116 42 -116 107c0 126 63 164 170 164h133l14 80c2 10 3 20 3 26c0 44 -29 60 -96 60
c-46 0 -98 -6 -143 -16l-9 63c48 14 113 23 165 23c73 0 119 -22 137 -71c35 47 89 71 157 71c81 0 134 -42 134 -119c0 -116 -101 -160 -291 -180zM416 311l-9 -49c151 14 204 51 204 116c0 23 -13 52 -65 52c-73 0 -115 -39 -130 -119zM314 197h-118
c-65 0 -94 -17 -94 -97c0 -25 14 -43 60 -43c42 0 96 15 141 40c-2 14 0 33 3 50c2 16 5 32 8 50zM406 550l-29 52c48 24 97 52 148 88l31 -55c-50 -35 -86 -55 -150 -85z" />
    <glyph glyph-name="Oslashacute" unicode="&#x1fe;" horiz-adv-x="619" 
d="M27 -33l63 84c-23 28 -34 63 -34 104c0 11 1 27 4 43l48 273c25 140 98 205 272 205c62 0 112 -16 147 -42l69 92l36 -27l-73 -97c20 -28 31 -61 31 -99c0 -12 -2 -26 -4 -37l-49 -279c-21 -119 -88 -197 -274 -197c-60 0 -105 11 -138 31l-61 -81zM140 160
c0 -13 1 -25 5 -36l335 448c-21 19 -57 30 -109 30c-113 0 -163 -39 -180 -135l-47 -268c-3 -17 -4 -29 -4 -39zM455 194l48 273c2 12 4 24 4 36c0 9 -1 18 -3 26l-331 -443c22 -14 55 -22 103 -22c116 0 164 47 179 130zM359 716l-30 49c45 27 75 46 116 78l34 -53
c-37 -27 -69 -48 -120 -74z" />
    <glyph glyph-name="oslashacute" unicode="&#x1ff;" horiz-adv-x="506" 
d="M11 -24l54 67c-27 33 -34 79 -24 132l25 142c21 119 89 180 229 180c47 0 85 -11 112 -30l57 70l31 -25l-59 -72c19 -24 29 -55 29 -88c0 -7 0 -18 -3 -34l-27 -153c-19 -110 -77 -175 -228 -175c-48 0 -85 10 -112 26l-54 -66zM123 171c-4 -22 -5 -41 -1 -57l237 292
c-17 13 -42 20 -76 20c-80 0 -122 -38 -135 -114zM354 170l26 148c2 11 3 21 3 29s-1 16 -3 23l-235 -292c15 -11 39 -17 74 -17c84 0 122 36 135 109zM272 550l-29 52c48 24 97 52 148 88l31 -55c-50 -35 -86 -55 -150 -85z" />
    <glyph glyph-name="Scommaaccent" unicode="&#x218;" horiz-adv-x="534" 
d="M214 -10c-57 0 -135 14 -191 37l19 67c62 -19 123 -31 180 -31c107 0 135 29 149 109c4 22 7 39 7 52c0 42 -26 53 -123 78c-116 30 -151 67 -151 137c0 20 3 42 7 67c24 135 78 170 237 170c50 0 123 -9 175 -23l-15 -71c-56 13 -124 20 -165 20
c-113 0 -134 -18 -148 -98c-4 -23 -7 -43 -7 -55c0 -42 25 -54 117 -79c123 -33 158 -65 158 -131c0 -17 -3 -42 -8 -68c-21 -121 -60 -181 -241 -181zM149 -158l19 107h82l-19 -107l-67 -101l-33 22l48 79h-30z" />
    <glyph glyph-name="scommaaccent" unicode="&#x219;" horiz-adv-x="411" 
d="M162 -10c-44 0 -104 10 -143 27l17 64c39 -13 88 -22 130 -22c71 0 85 12 94 66c7 41 -4 57 -82 93c-100 46 -117 90 -105 161c14 84 51 118 174 118c44 0 101 -9 138 -21l-14 -65c-38 10 -91 17 -126 17c-70 0 -83 -10 -92 -59c-8 -46 6 -56 68 -89
c113 -60 134 -84 120 -160c-17 -91 -46 -130 -179 -130zM92 -158l19 107h82l-19 -107l-67 -101l-33 22l48 79h-30z" />
    <glyph glyph-name="circumflex" unicode="&#x2c6;" horiz-adv-x="384" 
d="M349 542c-41 23 -66 42 -93 64c-35 -27 -63 -43 -105 -64l-26 47c49 29 83 49 140 91c35 -36 68 -61 114 -95z" />
    <glyph glyph-name="caron" unicode="&#x2c7;" horiz-adv-x="384" 
d="M154 671c40 -23 67 -45 94 -67c37 27 63 43 104 67l27 -46c-49 -29 -83 -51 -141 -93c-34 36 -67 63 -113 97z" />
    <glyph glyph-name="breve" unicode="&#x2d8;" horiz-adv-x="391" 
d="M246 539c-65 0 -107 41 -121 86l47 26c13 -34 34 -57 78 -57c46 0 72 25 96 59l40 -29c-23 -44 -63 -85 -140 -85z" />
    <glyph glyph-name="dotaccent" unicode="&#x2d9;" horiz-adv-x="236" 
d="M125 562l22 124l84 12l-22 -125z" />
    <glyph glyph-name="ring" unicode="&#x2da;" horiz-adv-x="281" 
d="M183 535c-39 0 -63 25 -63 59c0 51 33 86 88 86c40 0 63 -26 63 -57c0 -46 -27 -88 -88 -88zM203 646c-26 0 -43 -20 -43 -47c0 -16 6 -29 29 -29c27 0 41 22 41 48c0 17 -9 28 -27 28z" />
    <glyph glyph-name="ogonek" unicode="&#x2db;" horiz-adv-x="324" 
d="M154 -194c-17 -9 -39 -13 -63 -13c-56 0 -91 26 -91 73c0 63 67 104 123 134h66c-69 -39 -119 -80 -119 -121c0 -18 11 -32 41 -32c16 0 27 2 39 6z" />
    <glyph glyph-name="tilde" unicode="&#x2dc;" horiz-adv-x="416" 
d="M322 554c-45 0 -76 38 -108 38c-24 0 -41 -19 -58 -35l-31 31c20 33 54 62 96 62c41 0 72 -38 106 -38c20 0 31 9 49 29l35 -25c-21 -37 -45 -62 -89 -62z" />
    <glyph glyph-name="hungarumlaut" unicode="&#x2dd;" horiz-adv-x="429" 
d="M163 536l-38 41c39 36 67 62 107 109l41 -46c-37 -42 -72 -73 -110 -104zM319 536l-38 41c39 36 67 62 108 109l40 -46c-37 -42 -71 -73 -110 -104z" />
    <glyph glyph-name="Omega" unicode="&#x3a9;" horiz-adv-x="680" 
d="M485 196l48 272c2 13 3 23 3 34c0 62 -38 99 -135 99c-112 0 -164 -44 -180 -134l-48 -273c-2 -12 -2 -20 -2 -24c0 -43 17 -82 55 -106l-11 -64h-190l11 63h92c-29 31 -42 66 -42 96c0 12 1 24 3 36l49 276c25 140 98 205 272 205c143 0 211 -77 211 -171
c0 -11 -1 -24 -3 -37l-50 -279c-10 -58 -33 -93 -77 -126h93l-11 -63h-198l10 64c51 28 90 73 100 132z" />
    <glyph glyph-name="pi" unicode="&#x3c0;" horiz-adv-x="672" 
d="M479 -10c-67 0 -97 26 -97 79c0 10 1 21 3 32l56 316h-172c-18 -123 -52 -283 -107 -417h-83c58 151 88 265 111 417h-123l12 70h573l-12 -70h-119l-55 -310c-6 -33 -4 -51 33 -51c24 0 50 9 67 18l4 -61c-21 -13 -60 -23 -91 -23z" />
    <glyph glyph-name="Wgrave" unicode="&#x1e80;" horiz-adv-x="906" 
d="M670 0h-122l-42 597l-237 -597h-116l-61 666h79l50 -590l241 590h113l46 -590l240 590h85zM527 717c-49 28 -80 52 -112 78l39 49c35 -30 61 -49 107 -80z" />
    <glyph glyph-name="wgrave" unicode="&#x1e81;" horiz-adv-x="685" 
d="M342 387l-18 89l72 14l81 -423c37 97 51 139 95 263c12 35 13 65 13 84c0 21 -2 43 -8 65c27 5 49 9 75 14c4 -26 8 -51 8 -77c0 -35 -4 -70 -20 -115c-32 -88 -61 -167 -114 -301h-110l-55 285l-151 -285h-106c0 183 -8 355 -42 479l75 12c25 -121 39 -267 36 -425z
M374 550c-52 32 -83 56 -117 87l43 51c33 -32 64 -57 111 -90z" />
    <glyph glyph-name="Wacute" unicode="&#x1e82;" horiz-adv-x="906" 
d="M670 0h-122l-42 597l-237 -597h-116l-61 666h79l50 -590l241 590h113l46 -590l240 590h85zM525 716l-30 49c45 27 75 46 116 78l34 -53c-37 -27 -69 -48 -120 -74z" />
    <glyph glyph-name="wacute" unicode="&#x1e83;" horiz-adv-x="685" 
d="M342 387l-18 89l72 14l81 -423c37 97 51 139 95 263c12 35 13 65 13 84c0 21 -2 43 -8 65c27 5 49 9 75 14c4 -26 8 -51 8 -77c0 -35 -4 -70 -20 -115c-32 -88 -61 -167 -114 -301h-110l-55 285l-151 -285h-106c0 183 -8 355 -42 479l75 12c25 -121 39 -267 36 -425z
M344 550l-29 52c48 24 97 52 148 88l31 -55c-50 -35 -86 -55 -150 -85z" />
    <glyph glyph-name="Wdieresis" unicode="&#x1e84;" horiz-adv-x="906" 
d="M670 0h-122l-42 597l-237 -597h-116l-61 666h79l50 -590l241 590h113l46 -590l240 590h85zM404 732l13 75h79l-13 -75h-79zM591 732l13 75h79l-13 -75h-79z" />
    <glyph glyph-name="wdieresis" unicode="&#x1e85;" horiz-adv-x="685" 
d="M342 387l-18 89l72 14l81 -423c37 97 51 139 95 263c12 35 13 65 13 84c0 21 -2 43 -8 65c27 5 49 9 75 14c4 -26 8 -51 8 -77c0 -35 -4 -70 -20 -115c-32 -88 -61 -167 -114 -301h-110l-55 285l-151 -285h-106c0 183 -8 355 -42 479l75 12c25 -121 39 -267 36 -425z
M256 563l15 84l78 3l-15 -84zM436 563l15 84l78 3l-15 -84z" />
    <glyph glyph-name="Ygrave" unicode="&#x1ef2;" horiz-adv-x="535" 
d="M298 198l-35 -198h-84l36 205l-138 461h81l113 -376l237 376h95zM349 717c-49 28 -80 52 -112 78l39 49c35 -30 61 -49 107 -80z" />
    <glyph glyph-name="ygrave" unicode="&#x1ef3;" horiz-adv-x="434" 
d="M244 0c-54 -99 -101 -165 -232 -208l-22 63c78 28 124 66 169 145h-29l-76 480l79 11l62 -426l138 288c15 31 18 48 18 74c0 14 -3 37 -8 54l79 12c4 -17 8 -40 8 -64c0 -26 -1 -53 -17 -85zM263 550c-52 32 -83 56 -117 87l43 51c33 -32 64 -57 111 -90z" />
    <glyph glyph-name="endash" unicode="&#x2013;" horiz-adv-x="486" 
d="M74 247l11 69h354l-12 -69h-353z" />
    <glyph glyph-name="emdash" unicode="&#x2014;" horiz-adv-x="622" 
d="M74 247l11 69h490l-12 -69h-489z" />
    <glyph glyph-name="quoteleft" unicode="&#x2018;" horiz-adv-x="247" 
d="M221 699l31 -22l-60 -99h32l-19 -110h-85l20 114z" />
    <glyph glyph-name="quoteright" unicode="&#x2019;" horiz-adv-x="247" 
d="M151 455l-31 22l60 99h-32l19 110h85l-20 -114z" />
    <glyph glyph-name="quotesinglbase" unicode="&#x201a;" horiz-adv-x="255" 
d="M46 -121l-31 22l60 99h-32l19 110h85l-20 -114z" />
    <glyph glyph-name="quotedblleft" unicode="&#x201c;" horiz-adv-x="421" 
d="M221 699l31 -22l-60 -99h32l-19 -110h-85l20 114zM395 699l31 -22l-60 -99h32l-19 -110h-85l20 114z" />
    <glyph glyph-name="quotedblright" unicode="&#x201d;" horiz-adv-x="421" 
d="M325 455l-31 22l60 99h-32l19 110h85l-20 -114zM151 455l-31 22l60 99h-32l19 110h85l-20 -114z" />
    <glyph glyph-name="quotedblbase" unicode="&#x201e;" horiz-adv-x="429" 
d="M220 -121l-31 22l60 99h-32l19 110h85l-20 -114zM46 -121l-31 22l60 99h-32l19 110h85l-20 -114z" />
    <glyph glyph-name="dagger" unicode="&#x2020;" horiz-adv-x="470" 
d="M301 428l-88 -498h-70l88 498h-156l11 61h156l31 177h70l-31 -177h157l-12 -61h-156z" />
    <glyph glyph-name="daggerdbl" unicode="&#x2021;" horiz-adv-x="470" 
d="M244 107l-31 -177h-71l32 177h-157l12 61h156l45 260h-156l11 61h156l31 177h71l-32 -177h157l-11 -61h-157l-45 -260h157l-12 -61h-156z" />
    <glyph glyph-name="bullet" unicode="&#x2022;" horiz-adv-x="372" 
d="M75 323c0 67 54 121 121 121s122 -54 122 -121s-55 -121 -122 -121s-121 54 -121 121z" />
    <glyph glyph-name="ellipsis" unicode="&#x2026;" horiz-adv-x="768" 
d="M52 0l19 110h85l-19 -110h-85zM308 0l19 110h85l-19 -110h-85zM564 0l19 110h85l-19 -110h-85z" />
    <glyph glyph-name="perthousand" unicode="&#x2030;" horiz-adv-x="1211" 
d="M274 -10l-52 27l354 659l52 -27zM195 313c-91 0 -127 42 -127 102c0 11 1 22 3 33l18 102c15 86 53 126 167 126c86 0 129 -41 129 -104c0 -10 -2 -21 -3 -27l-19 -109c-13 -75 -50 -123 -168 -123zM299 448l17 97c1 5 2 15 2 21c0 34 -18 52 -70 52
c-61 0 -84 -19 -94 -73l-18 -102c-1 -7 -2 -15 -2 -22c0 -32 17 -50 70 -50c67 0 86 25 95 77zM591 -10c-91 0 -127 42 -127 102c0 11 1 22 3 33l18 102c15 86 53 126 167 126c86 0 129 -41 129 -104c0 -10 -2 -21 -3 -27l-19 -109c-13 -75 -50 -123 -168 -123zM695 125
l17 97c1 5 2 15 2 21c0 34 -18 52 -70 52c-61 0 -84 -19 -94 -73l-18 -102c-1 -7 -2 -15 -2 -22c0 -32 17 -50 70 -50c67 0 86 25 95 77zM961 -10c-91 0 -127 42 -127 102c0 11 1 22 3 33l18 102c15 86 53 126 167 126c86 0 129 -41 129 -104c0 -10 -2 -21 -3 -27l-19 -109
c-13 -75 -50 -123 -168 -123zM1065 125l17 97c1 5 2 15 2 21c0 34 -18 52 -70 52c-61 0 -84 -19 -94 -73l-18 -102c-1 -7 -2 -15 -2 -22c0 -32 17 -50 70 -50c67 0 86 25 95 77z" />
    <glyph glyph-name="guilsinglleft" unicode="&#x2039;" horiz-adv-x="283" 
d="M138 52l-92 192l157 193l54 -47l-126 -149l72 -157z" />
    <glyph glyph-name="guilsinglright" unicode="&#x203a;" horiz-adv-x="283" 
d="M156 438l92 -192l-157 -193l-54 47l126 149l-72 157z" />
    <glyph glyph-name="fraction" unicode="&#x2044;" horiz-adv-x="311" 
d="M-9 -33l-46 28l395 684l46 -26z" />
    <glyph glyph-name="Euro" unicode="&#x20ac;" horiz-adv-x="522" 
d="M43 378l10 53h86l6 31c25 139 97 194 258 194c39 0 88 -5 139 -19l-16 -67c-51 11 -86 14 -130 14c-113 0 -153 -33 -171 -133l-4 -20h219l-9 -53h-219l-18 -104h218l-9 -53h-218l-5 -29c-3 -16 -4 -30 -4 -42c0 -60 25 -88 130 -88c44 0 80 4 133 14l3 -69
c-52 -13 -97 -17 -153 -17c-141 0 -196 62 -196 154c0 15 2 31 5 49l5 28h-88l10 53h87l18 104h-87z" />
    <glyph glyph-name="uni2113" unicode="&#x2113;" horiz-adv-x="459" 
d="M199 -10c-97 0 -127 48 -127 113c0 14 2 34 4 44l9 51c-23 -13 -47 -27 -72 -40l-26 59c38 20 75 41 112 61l46 261c19 108 65 167 179 167c88 0 127 -55 127 -124c0 -135 -115 -237 -277 -337l-20 -115c-1 -6 -2 -16 -2 -23c0 -28 12 -47 57 -47c54 0 104 26 154 55
l28 -58c-54 -36 -120 -67 -192 -67zM228 550l-38 -217c97 63 183 149 183 250c0 34 -20 54 -57 54c-49 0 -78 -26 -88 -87z" />
    <glyph glyph-name="uni2116" unicode="&#x2116;" horiz-adv-x="966" 
d="M370 0l-154 557l-98 -557h-78l118 666h105l153 -564l99 564h78l-117 -666h-106zM625 185l9 56h278l-10 -56h-277zM955 434c-14 -81 -57 -137 -173 -137c-104 0 -139 56 -124 137l20 110c15 81 61 132 171 132c100 0 139 -61 124 -142zM906 541c9 49 -10 76 -68 76
c-57 0 -84 -27 -93 -76l-19 -109c-9 -49 3 -76 66 -76c58 0 86 27 95 76z" />
    <glyph glyph-name="trademark" unicode="&#x2122;" horiz-adv-x="504" 
d="M166 461v173h-61v32h157v-32h-61v-173h-35zM403 515l54 151h40l7 -205h-35l-3 141l-43 -116h-40l-43 116l-3 -141h-35l7 205h40z" />
    <glyph glyph-name="estimated" unicode="&#x212e;" horiz-adv-x="804" 
d="M774 301h-572v-201c54 -47 127 -76 215 -76c120 0 203 42 291 130l24 -24c-78 -80 -170 -140 -315 -140c-202 0 -357 152 -357 333c0 183 163 333 357 333s357 -150 357 -333v-22zM417 622c-84 0 -159 -31 -215 -80v-209h430v209c-56 49 -131 80 -215 80z" />
    <glyph glyph-name="partialdiff" unicode="&#x2202;" horiz-adv-x="570" 
d="M441 157c-41 -116 -75 -167 -248 -167c-108 0 -155 40 -155 103c0 20 4 41 12 64l39 109c38 108 80 160 224 160c41 0 88 -10 131 -28l7 21c15 44 24 78 24 107c0 68 -34 98 -130 98c-41 0 -86 -11 -127 -27l-16 63c47 22 105 36 165 36c111 0 186 -54 186 -159
c0 -38 -8 -83 -26 -133zM305 355c-90 0 -112 -24 -135 -90l-40 -110c-7 -20 -11 -37 -11 -50c0 -33 27 -44 98 -44c90 0 114 19 140 93l63 176c-39 18 -76 25 -115 25z" />
    <glyph glyph-name="Delta" unicode="&#x2206;" horiz-adv-x="702" 
d="M5 0l373 666h90l139 -666h-602zM410 588l-279 -519h379z" />
    <glyph glyph-name="product" unicode="&#x220f;" horiz-adv-x="799" 
d="M663 592l-122 -692h-81l121 692h-245l-122 -692h-82l122 692h-139l13 74h686l-13 -74h-138z" />
    <glyph glyph-name="summation" unicode="&#x2211;" horiz-adv-x="538" 
d="M23 -100l13 70l292 315l-185 311l13 70h389l-13 -69h-299l192 -312l-286 -316h290l-13 -69h-393z" />
    <glyph glyph-name="minus" unicode="&#x2212;" horiz-adv-x="392" 
d="M75 245v71h267v-71h-267z" />
    <glyph glyph-name="radical" unicode="&#x221a;" horiz-adv-x="673" 
d="M576 665l-297 -665h-87l-83 455l69 11l67 -380l283 644h213l-11 -65h-154z" />
    <glyph glyph-name="infinity" unicode="&#x221e;" horiz-adv-x="875" 
d="M655 106c-93 0 -152 61 -205 126c-54 -65 -113 -126 -206 -126c-105 0 -175 61 -175 170s69 172 175 172c93 0 152 -61 206 -127c53 66 112 127 205 127c106 0 176 -63 176 -172s-71 -170 -176 -170zM654 382c-69 0 -115 -52 -155 -106c43 -54 86 -103 155 -103
c62 0 105 34 105 103s-43 106 -105 106zM245 382c-62 0 -105 -37 -105 -106s43 -103 105 -103c69 0 113 49 156 103c-40 54 -87 106 -156 106z" />
    <glyph glyph-name="integral" unicode="&#x222b;" horiz-adv-x="387" 
d="M382 595c-16 5 -40 10 -59 10c-31 0 -41 -10 -47 -42l-117 -666c-14 -76 -39 -104 -118 -104c-29 0 -65 9 -86 19l17 61c20 -8 42 -12 60 -12c32 0 40 9 45 37l118 668c13 74 37 110 121 110c29 0 63 -8 83 -18z" />
    <glyph glyph-name="approxequal" unicode="&#x2248;" horiz-adv-x="522" 
d="M354 255c-71 0 -104 58 -170 58c-33 0 -60 -14 -85 -32l-29 52c37 31 75 48 120 48c64 0 111 -58 166 -58c31 0 56 12 80 30l31 -50c-27 -24 -68 -48 -113 -48zM354 92c-71 0 -104 58 -170 58c-33 0 -60 -14 -85 -32l-29 52c37 31 75 48 120 48c64 0 111 -58 166 -58
c31 0 56 12 80 30l31 -50c-27 -24 -68 -48 -113 -48z" />
    <glyph glyph-name="notequal" unicode="&#x2260;" horiz-adv-x="482" 
d="M221 129l-60 -120l-51 27l48 93h-93v59h124l62 120h-186v59h216l62 122l51 -27l-49 -95h87v-59h-118l-62 -120h180v-59h-211z" />
    <glyph glyph-name="lessequal" unicode="&#x2264;" horiz-adv-x="538" 
d="M64 0v59h398v-59h-398zM439 470l-285 -138l285 -138l-27 -57l-337 168v54l337 168z" />
    <glyph glyph-name="greaterequal" unicode="&#x2265;" horiz-adv-x="538" 
d="M474 59v-59h-398v59h398zM384 332l-285 138l27 57l337 -168v-54l-337 -168l-27 57z" />
    <glyph glyph-name="lozenge" unicode="&#x25ca;" horiz-adv-x="594" 
d="M346 0h-48l-228 333l228 333h48l228 -333zM322 591l-176 -258l176 -258l175 258z" />
    <glyph glyph-name="apple" unicode="&#xf8ff;" horiz-adv-x="815" 
d="M451 334v-334h-331v666h665v-332h-334z" />
    <glyph glyph-name="Acute" horiz-adv-x="285" 
d="M190 716l-30 49c45 27 75 46 116 78l34 -53c-37 -27 -69 -48 -120 -74z" />
    <glyph glyph-name="Breve" horiz-adv-x="383" 
d="M276 715c-63 0 -103 37 -116 79l46 27c13 -31 34 -51 75 -51c40 0 63 18 87 52l40 -29c-22 -44 -62 -78 -132 -78z" />
    <glyph glyph-name="Caron" horiz-adv-x="363" 
d="M174 838c43 -22 59 -33 89 -53c34 21 63 37 94 53l26 -47c-45 -24 -81 -46 -129 -78c-32 27 -61 49 -109 82z" />
    <glyph glyph-name="Cedilla" horiz-adv-x="303" 
d="M74 -204c-25 0 -52 6 -74 14l12 40c21 -7 40 -10 62 -10c42 0 62 14 62 40c0 13 -12 23 -37 23c-12 0 -31 -1 -47 -3l-9 15l32 91h46l-24 -70c11 2 23 3 31 3c37 0 60 -20 60 -54c0 -53 -39 -89 -114 -89z" />
    <glyph glyph-name="Circumflex" horiz-adv-x="367" 
d="M359 715c-43 22 -59 32 -90 53c-33 -21 -62 -37 -94 -53l-25 46c44 25 80 46 128 78c33 -27 62 -49 109 -82z" />
    <glyph glyph-name="commaaccent" horiz-adv-x="327" 
d="M101 -158l19 107h82l-19 -107l-67 -101l-33 22l48 79h-30z" />
    <glyph glyph-name="Dieresis" horiz-adv-x="396" 
d="M136 732l13 75h79l-13 -75h-79zM323 732l13 75h79l-13 -75h-79z" />
    <glyph glyph-name="Dotaccent" horiz-adv-x="231" 
d="M150 718l22 124l84 12l-22 -125z" />
    <glyph glyph-name="Grave" horiz-adv-x="291" 
d="M252 717c-49 28 -80 52 -112 78l39 49c35 -30 61 -49 107 -80z" />
    <glyph glyph-name="Hungarumlaut" horiz-adv-x="413" 
d="M196 715l-36 43c39 31 64 54 96 85l39 -48c-38 -36 -62 -54 -99 -80zM354 715l-36 43c39 31 64 54 96 85l39 -48c-38 -36 -62 -54 -99 -80z" />
    <glyph glyph-name="Macron" horiz-adv-x="375" 
d="M150 737l11 59h239l-11 -59h-239z" />
    <glyph glyph-name="Ogonek" horiz-adv-x="324" 
d="M154 -194c-17 -9 -39 -13 -63 -13c-56 0 -91 26 -91 73c0 63 67 104 123 134h66c-69 -39 -119 -80 -119 -121c0 -18 11 -32 41 -32c16 0 27 2 39 6z" />
    <glyph glyph-name="Ring" horiz-adv-x="268" 
d="M210 711c-37 0 -60 23 -60 56c0 50 30 81 83 81c39 0 60 -23 60 -53c0 -45 -25 -84 -83 -84zM228 815c-23 0 -39 -17 -39 -43c0 -16 7 -26 26 -26c26 0 38 19 38 44c0 16 -7 25 -25 25z" />
    <glyph glyph-name="Tilde" horiz-adv-x="400" 
d="M327 724c-45 0 -76 38 -108 38c-24 0 -42 -19 -59 -35l-30 31c20 33 54 62 96 62c41 0 72 -38 105 -38c21 0 32 9 49 29l35 -25c-21 -37 -44 -62 -88 -62z" />
    <glyph glyph-name="ampersand.salt" horiz-adv-x="608" 
d="M491 299l-50 -279c-58 -19 -141 -30 -208 -30c-130 0 -183 42 -183 120c0 12 1 26 3 38l12 68c12 70 48 108 112 123c-43 19 -58 50 -58 88c0 9 1 21 3 31l12 68c20 110 65 150 220 150c48 0 115 -7 172 -24l-14 -65c-61 12 -119 18 -172 18c-83 0 -113 -15 -125 -83
l-12 -68c-1 -8 -2 -15 -2 -22c0 -39 22 -63 78 -63h322l-12 -70h-98zM413 299h-136c-71 0 -120 -25 -132 -95l-9 -51c-2 -11 -3 -21 -3 -31c0 -44 23 -63 112 -63c42 0 86 5 128 15z" />
    <glyph glyph-name="minus.onum" horiz-adv-x="392" 
d="M75 245v71h267v-71h-267z" />
    <glyph glyph-name="multiply.onum" horiz-adv-x="524" 
d="M408 51l-141 142l-141 -142l-49 49l141 142l-141 142l49 49l141 -141l141 141l49 -49l-141 -142l141 -142z" />
    <glyph glyph-name="numbersign.onum" horiz-adv-x="624" 
d="M539 120h-110l-25 -120h-64l25 120h-165l-26 -120h-64l25 120h-104l13 59h104l34 155h-104l12 59h103l26 117h65l-26 -117h165l26 117h64l-25 -117h111l-12 -59h-111l-34 -155h110zM246 334l-34 -155h166l34 155h-166z" />
    <glyph glyph-name="dollar.onum" horiz-adv-x="475" 
d="M137 -99l15 91c-45 4 -89 15 -129 33l16 62c44 -14 107 -28 158 -28c84 0 104 20 113 70c11 62 4 69 -95 97c-133 38 -140 70 -122 167c17 93 64 121 165 126l17 90h73l-17 -91c38 -2 72 -8 109 -17l-15 -67c-47 10 -104 16 -139 16c-87 0 -104 -9 -115 -69
c-10 -56 -4 -62 86 -90c133 -42 151 -65 134 -161c-16 -91 -48 -132 -166 -138l-15 -91h-73z" />
    <glyph glyph-name="percent.onum" horiz-adv-x="743" 
d="M325 342c-12 -69 -41 -111 -149 -111c-80 0 -112 35 -112 88c0 7 0 17 3 33l12 68c12 68 46 100 146 100c71 0 114 -34 114 -91c0 -6 -1 -15 -2 -21zM141 415l-13 -75c-1 -7 -2 -12 -2 -18c0 -23 11 -37 59 -37c54 0 72 20 78 55l12 70c1 6 2 13 2 18c0 23 -13 38 -60 38
c-54 0 -69 -13 -76 -51zM669 101c-12 -69 -41 -111 -149 -111c-80 0 -112 35 -112 88c0 7 0 17 3 33l12 68c12 68 46 100 146 100c71 0 114 -34 114 -91c0 -6 -1 -15 -2 -21zM485 174l-13 -75c-1 -7 -2 -12 -2 -18c0 -23 11 -37 59 -37c54 0 72 20 78 55l12 70
c1 6 2 13 2 18c0 23 -13 38 -60 38c-54 0 -69 -13 -76 -51zM191 21l316 499l46 -31l-315 -499z" />
    <glyph glyph-name="plus.onum" horiz-adv-x="524" 
d="M298 209v-170h-71v170h-167v68h167v170h71v-170h166v-68h-166z" />
    <glyph glyph-name="zero.onum" horiz-adv-x="542" 
d="M224 -10c-133 0 -178 60 -178 138c0 13 2 30 4 42l32 181c20 114 82 169 234 169c122 0 179 -64 179 -146c0 -10 -1 -22 -3 -33l-32 -182c-18 -102 -63 -169 -236 -169zM380 169l30 172c2 11 3 22 3 32c0 49 -28 76 -109 76c-94 0 -129 -34 -142 -108l-30 -171
c-2 -12 -3 -24 -3 -35c0 -47 25 -74 108 -74c94 0 130 30 143 108z" />
    <glyph glyph-name="one.onum" horiz-adv-x="342" 
d="M130 0l73 414l-137 -70l-31 65l191 101h76l-90 -510h-82z" />
    <glyph glyph-name="two.onum" horiz-adv-x="502" 
d="M23 0c3 22 7 43 10 65c76 57 106 80 167 127c129 99 147 119 155 165l3 17c1 7 2 14 2 19c0 42 -29 54 -90 54c-45 0 -95 -7 -161 -24l-12 66c55 18 131 31 178 31c104 0 168 -41 168 -118c0 -10 -2 -22 -3 -27l-2 -12c-14 -79 -25 -99 -133 -185
c-21 -16 -120 -92 -139 -107h233c-4 -24 -7 -47 -12 -71h-364z" />
    <glyph glyph-name="three.onum" horiz-adv-x="476" 
d="M150 -146c-47 0 -104 7 -160 27l19 65c48 -13 91 -21 142 -21c102 0 123 24 135 92l8 45c1 7 2 12 2 19c0 45 -33 72 -100 72h-114l12 71h115c69 0 105 30 113 77l12 69c1 5 2 15 2 22c0 43 -31 58 -102 58c-46 0 -92 -5 -132 -13l-7 66c42 10 102 17 154 17
c119 0 170 -49 170 -120c0 -10 -1 -20 -3 -31l-11 -63c-11 -64 -35 -99 -104 -121c47 -9 76 -51 76 -102c0 -5 0 -15 -2 -27l-8 -44c-19 -104 -51 -158 -217 -158z" />
    <glyph glyph-name="four.onum" horiz-adv-x="562" 
d="M400 43l-32 -179h-81l31 179h-302l6 79l345 388h115l-71 -399h97l-13 -68h-95zM387 429l-282 -318h225z" />
    <glyph glyph-name="five.onum" horiz-adv-x="487" 
d="M159 -146c-44 0 -99 5 -158 24l17 67c52 -12 94 -19 149 -19c100 0 123 28 136 98l6 36c1 7 3 18 3 28c0 48 -21 61 -106 66c-36 2 -83 5 -138 7l62 349h332l-12 -72h-251l-37 -210c37 -2 61 -4 98 -7c82 -7 136 -43 136 -117c0 -12 -2 -27 -4 -38l-6 -37
c-21 -119 -56 -175 -227 -175z" />
    <glyph glyph-name="six.onum" horiz-adv-x="532" 
d="M233 -10c-126 0 -168 51 -168 127c0 15 1 31 4 47l47 269c29 166 89 223 275 223c36 0 80 -4 121 -17l-15 -66c-37 9 -74 12 -100 12c-148 0 -179 -39 -199 -153l-15 -86c43 15 93 23 136 23c109 0 148 -42 148 -113c0 -14 -1 -30 -4 -46l-9 -52
c-18 -102 -57 -168 -221 -168zM371 154l11 61c2 13 4 24 4 33c0 38 -21 50 -86 50c-44 0 -88 -9 -130 -26l-20 -112c-2 -12 -3 -23 -3 -32c0 -46 26 -66 99 -66c82 0 113 23 125 92z" />
    <glyph glyph-name="seven.onum" horiz-adv-x="460" 
d="M90 -136l-61 40l344 535h-312l12 71h391l-5 -70z" />
    <glyph glyph-name="eight.onum" horiz-adv-x="551" 
d="M232 -10c-125 0 -182 40 -182 120c0 12 2 25 4 38l6 33c14 78 57 118 155 150c-56 35 -87 72 -87 125c0 11 1 19 2 26l3 18c19 109 72 156 215 156c103 0 165 -49 165 -123c0 -9 -1 -17 -3 -28l-5 -29c-12 -68 -51 -119 -136 -147c70 -33 104 -68 104 -124
c0 -9 -1 -18 -3 -29l-6 -33c-20 -110 -67 -153 -232 -153zM424 471l6 33c1 7 2 14 2 20c0 40 -27 62 -96 62c-82 0 -113 -30 -122 -81l-5 -29c-1 -6 -2 -12 -2 -18c0 -40 29 -66 90 -96c76 31 118 59 127 109zM384 148l5 28c2 10 3 18 3 26c0 42 -29 56 -108 91
c-106 -40 -135 -61 -145 -116l-5 -29c-2 -11 -3 -22 -3 -29c0 -44 29 -59 113 -59c93 0 128 20 140 88z" />
    <glyph glyph-name="nine.onum" horiz-adv-x="522" 
d="M299 520c118 0 168 -51 168 -127c0 -15 -1 -31 -4 -47l-47 -269c-29 -166 -83 -223 -275 -223c-36 0 -80 4 -121 17l15 66c37 -9 74 -12 100 -12c153 0 179 39 199 153l15 86c-43 -15 -93 -23 -136 -23c-109 0 -148 42 -148 113c0 14 1 30 4 46l9 52
c19 109 57 168 221 168zM161 356l-11 -61c-2 -13 -4 -24 -4 -33c0 -38 20 -50 86 -50c40 0 88 9 130 26l20 112c2 12 3 23 3 32c0 46 -26 66 -99 66c-82 0 -113 -23 -125 -92z" />
    <glyph glyph-name="less.onum" horiz-adv-x="554" 
d="M462 -10l-412 228v52l411 227l29 -54l-366 -199l367 -200z" />
    <glyph glyph-name="equal.onum" horiz-adv-x="482" 
d="M65 305v59h367v-59h-367zM65 124v59h367v-59h-367z" />
    <glyph glyph-name="greater.onum" horiz-adv-x="554" 
d="M509 218l-412 -228l-29 54l367 200l-366 199l29 54l411 -227v-52z" />
    <glyph glyph-name="cent.onum" horiz-adv-x="456" 
d="M155 -82l17 90c-84 3 -119 46 -119 109c0 7 1 21 4 38l27 154c21 121 70 169 173 177l17 92h65l-17 -92c30 -3 63 -10 90 -20l-18 -64c-33 10 -72 16 -104 16c-79 0 -110 -28 -127 -120l-27 -155c-1 -7 -2 -14 -2 -21c0 -31 17 -44 59 -44c44 0 102 14 151 33l11 -66
c-35 -16 -75 -28 -118 -34l-17 -93h-65z" />
    <glyph glyph-name="sterling.onum" horiz-adv-x="510" 
d="M64 224l11 62h80c-14 33 -21 70 -21 86c0 106 58 148 197 148c45 0 105 -9 148 -25l-15 -63c-42 11 -100 18 -141 18c-70 0 -105 -10 -105 -78c0 -30 13 -65 24 -86h189l-13 -62h-164c1 -5 1 -12 1 -18c0 -54 -26 -99 -87 -138h263l-12 -68h-377l11 65
c62 32 118 77 118 140c0 6 -1 14 -2 19h-105z" />
    <glyph glyph-name="section.onum" horiz-adv-x="521" 
d="M226 20l-61 -30c-56 98 -81 201 -81 303c0 38 3 76 10 115c13 78 56 112 151 112c47 0 106 -10 146 -24l-15 -59c-43 12 -97 20 -135 20c-49 0 -68 -15 -75 -59c-6 -37 -9 -72 -9 -108c0 -92 20 -173 69 -270zM300 315l61 30c56 -98 81 -201 81 -303
c0 -38 -3 -76 -10 -115c-13 -78 -56 -112 -151 -112c-47 0 -106 10 -146 24l15 59c43 -12 97 -20 135 -20c49 0 68 15 75 59c6 37 9 72 9 108c0 92 -20 173 -69 270z" />
    <glyph glyph-name="yen.onum" horiz-adv-x="512" 
d="M53 214l10 55h93l-86 241h80l100 -288l194 288h89l-170 -241h92l-10 -55h-121l-45 -62l-3 -16h155l-9 -53h-155l-14 -83h-81l14 83h-156l9 53h156l4 20l-23 58h-123z" />
    <glyph glyph-name="florin.onum" horiz-adv-x="452" 
d="M441 441c-21 7 -54 13 -76 13c-51 0 -67 -11 -81 -61l-33 -131h133l-17 -67h-136l-70 -273c-22 -86 -45 -119 -134 -119c-27 0 -62 7 -88 19l17 63c17 -7 43 -13 62 -13c44 0 52 14 63 56l69 267h-88l20 67h87l36 141c22 82 54 120 151 120c33 0 72 -7 102 -19z" />
    <glyph glyph-name="endash.onum" horiz-adv-x="486" 
d="M74 247l11 69h354l-12 -69h-353z" />
    <glyph glyph-name="divide.onum" horiz-adv-x="526" 
d="M223 364v92h81v-92h-81zM60 212v62h406v-62h-406zM223 30v92h81v-92h-81z" />
    <glyph glyph-name="Euro.onum" horiz-adv-x="522" 
d="M41 170l9 45h73l15 83h-74l8 46h74l5 28c19 109 66 148 211 148c43 0 101 -11 141 -23l-16 -63c-46 11 -90 17 -130 17c-98 0 -113 -14 -126 -87l-3 -20h189l-7 -46h-190l-15 -83h190l-8 -45h-190l-5 -28c-12 -68 7 -83 106 -83c36 0 78 5 123 13l2 -64
c-37 -11 -96 -18 -138 -18c-146 0 -193 52 -174 157l4 23h-74z" />
    <glyph glyph-name="perthousand.onum" horiz-adv-x="1063" 
d="M190 21l316 499l46 -31l-315 -499zM325 342c-12 -69 -41 -111 -149 -111c-80 0 -112 35 -112 88c0 7 0 17 3 33l12 68c12 68 46 100 146 100c71 0 114 -34 114 -91c0 -6 -1 -15 -2 -21zM141 415l-13 -75c-1 -7 -2 -12 -2 -18c0 -23 11 -37 59 -37c54 0 72 20 78 55l12 70
c1 6 2 13 2 18c0 23 -13 38 -60 38c-54 0 -69 -13 -76 -51zM669 101c-12 -69 -41 -111 -149 -111c-80 0 -112 35 -112 88c0 7 0 17 3 33l12 68c12 68 46 100 146 100c71 0 114 -34 114 -91c0 -6 -1 -15 -2 -21zM485 174l-13 -75c-1 -7 -2 -12 -2 -18c0 -23 11 -37 59 -37
c54 0 72 20 78 55l12 70c1 6 2 13 2 18c0 23 -13 38 -60 38c-54 0 -69 -13 -76 -51zM989 101c-12 -69 -41 -111 -149 -111c-80 0 -112 35 -112 88c0 7 0 17 3 33l12 68c12 68 46 100 146 100c71 0 114 -34 114 -91c0 -6 -1 -15 -2 -21zM805 174l-13 -75c-1 -7 -2 -12 -2 -18
c0 -23 11 -37 59 -37c54 0 72 20 78 55l12 70c1 6 2 13 2 18c0 23 -13 38 -60 38c-54 0 -69 -13 -76 -51z" />
    <glyph glyph-name="minus.tnum" 
d="M129 207v71h267v-71h-267z" />
    <glyph glyph-name="multiply.tnum" 
d="M426 51l-141 142l-141 -142l-49 49l141 142l-141 142l49 49l141 -141l141 141l49 -49l-141 -142l141 -142z" />
    <glyph glyph-name="numbersign.tnum" 
d="M519 427h-83l-43 -196h84l-13 -57h-83l-38 -174h-61l37 174h-151l-38 -174h-61l37 174h-83l13 57h83l43 196h-84l13 57h84l36 162h61l-36 -162h152l35 162h62l-36 -162h83zM223 427l-42 -196h151l43 196h-152z" />
    <glyph glyph-name="dollar.tnum" 
d="M168 -113l18 104c-48 3 -89 13 -137 35l20 66c50 -19 101 -30 154 -30c99 0 113 19 127 102c4 24 7 40 7 54c0 42 -23 55 -98 76c-103 29 -129 64 -129 119c0 22 4 47 9 77c22 127 52 160 186 165l19 104h71l-19 -105c40 -3 67 -8 104 -18l-15 -70c-52 12 -97 18 -139 18
c-109 0 -112 -19 -126 -97c-4 -25 -8 -43 -8 -58c0 -37 22 -47 97 -71c101 -31 131 -60 131 -123c0 -20 -3 -43 -8 -71c-20 -114 -45 -163 -174 -172l-19 -105h-71z" />
    <glyph glyph-name="percent.tnum" horiz-adv-x="841" 
d="M274 -10l-52 27l354 659l52 -27zM195 313c-91 0 -127 42 -127 102c0 11 1 22 3 33l18 102c15 86 53 126 167 126c86 0 129 -41 129 -104c0 -10 -2 -21 -3 -27l-19 -109c-13 -75 -50 -123 -168 -123zM299 448l17 97c1 5 2 15 2 21c0 34 -18 52 -70 52
c-61 0 -84 -19 -94 -73l-18 -102c-1 -7 -2 -15 -2 -22c0 -32 17 -50 70 -50c67 0 86 25 95 77zM591 -10c-91 0 -127 42 -127 102c0 11 1 22 3 33l18 102c15 86 53 126 167 126c86 0 129 -41 129 -104c0 -10 -2 -21 -3 -27l-19 -109c-13 -75 -50 -123 -168 -123zM695 125
l17 97c1 5 2 15 2 21c0 34 -18 52 -70 52c-61 0 -84 -19 -94 -73l-18 -102c-1 -7 -2 -15 -2 -22c0 -32 17 -50 70 -50c67 0 86 25 95 77z" />
    <glyph glyph-name="plus.tnum" 
d="M298 209v-170h-71v170h-167v68h167v170h71v-170h166v-68h-166z" />
    <glyph glyph-name="zero.tnum" 
d="M215 -10c-129 0 -177 57 -177 136c0 12 1 27 3 38l57 324c22 124 84 168 234 168c111 0 178 -57 178 -146c0 -11 -1 -22 -3 -34l-55 -312c-20 -114 -65 -174 -237 -174zM371 171l53 300c2 12 4 24 4 34c0 51 -29 79 -109 79c-95 0 -127 -32 -141 -108l-55 -311
c-2 -11 -3 -24 -3 -34c0 -46 25 -69 108 -69c97 0 129 31 143 109z" />
    <glyph glyph-name="one.tnum" 
d="M55 0l12 70h154l85 482l-151 -70l-30 64l204 100h76l-102 -576h158l-12 -70h-394z" />
    <glyph glyph-name="two.tnum" 
d="M40 0l7 72c96 95 116 115 206 207c99 102 135 137 144 187l4 22c3 17 4 29 4 38c0 39 -22 57 -106 57c-47 0 -106 -9 -159 -23l-9 67c56 17 123 29 187 29c115 0 170 -46 170 -126c0 -13 -2 -24 -4 -37l-5 -27c-14 -76 -28 -94 -148 -216c-79 -81 -103 -106 -174 -178
h257l-12 -72h-362z" />
    <glyph glyph-name="three.tnum" 
d="M207 -10c-52 0 -121 11 -170 31l19 65c39 -13 101 -25 152 -25c102 0 123 24 135 92l8 45c10 56 -14 91 -90 91h-132l12 71h134c63 0 96 30 104 77l12 69c11 60 -18 80 -100 80c-46 0 -99 -5 -139 -13l-7 66c42 10 109 17 161 17c135 0 183 -63 167 -151l-11 -63
c-11 -64 -31 -93 -98 -118c54 -11 79 -68 68 -130l-8 -46c-18 -104 -51 -158 -217 -158z" />
    <glyph glyph-name="four.tnum" 
d="M406 164l-28 -164h-81l28 164h-297l12 79l335 403h116l-73 -414h86l-12 -68h-86zM398 574l-279 -342h218z" />
    <glyph glyph-name="five.tnum" 
d="M204 -10c-44 0 -112 9 -166 28l17 67c50 -13 102 -23 157 -23c100 0 123 28 136 98l7 39c2 10 3 22 3 28c0 44 -21 61 -106 66c-36 2 -88 5 -143 7l61 346h337l-12 -72h-256l-36 -207c37 -2 66 -4 103 -7c82 -7 136 -43 136 -117c0 -12 -2 -27 -4 -38l-7 -40
c-21 -119 -56 -175 -227 -175z" />
    <glyph glyph-name="six.tnum" 
d="M230 -10c-126 0 -168 51 -168 127c0 15 1 31 4 47l47 269c29 166 89 223 275 223c36 0 80 -4 121 -17l-15 -66c-37 9 -74 12 -100 12c-148 0 -179 -39 -199 -153l-15 -86c43 15 93 23 136 23c109 0 148 -42 148 -113c0 -14 -1 -30 -4 -46l-9 -52
c-18 -102 -57 -168 -221 -168zM368 154l11 61c2 13 4 24 4 33c0 38 -21 50 -86 50c-44 0 -88 -9 -130 -26l-20 -112c-2 -12 -3 -23 -3 -32c0 -46 26 -66 99 -66c82 0 113 23 125 92z" />
    <glyph glyph-name="seven.tnum" 
d="M146 0h-87l370 575h-320l12 71h406l-12 -69z" />
    <glyph glyph-name="eight.tnum" 
d="M220 -10c-125 0 -182 40 -182 120c0 12 2 25 4 38l6 33c14 78 57 118 155 150c-56 35 -87 72 -87 125c0 11 1 19 2 26l3 18c19 109 72 156 215 156c103 0 165 -49 165 -123c0 -9 -1 -17 -3 -28l-5 -29c-12 -68 -51 -119 -136 -147c70 -33 104 -68 104 -124
c0 -9 -1 -18 -3 -29l-6 -33c-20 -110 -67 -153 -232 -153zM412 471l6 33c1 7 2 14 2 20c0 40 -27 62 -96 62c-82 0 -113 -30 -122 -81l-5 -29c-1 -6 -2 -12 -2 -18c0 -40 29 -66 90 -96c76 31 118 59 127 109zM372 148l5 28c2 10 3 18 3 26c0 42 -29 56 -108 91
c-106 -40 -135 -61 -145 -116l-5 -29c-2 -11 -3 -22 -3 -29c0 -44 29 -59 113 -59c93 0 128 20 140 88z" />
    <glyph glyph-name="nine.tnum" 
d="M318 656c118 0 168 -51 168 -127c0 -15 -1 -31 -4 -47l-47 -269c-29 -166 -83 -223 -275 -223c-36 0 -80 4 -121 17l15 66c37 -9 74 -12 100 -12c153 0 179 39 199 153l15 86c-43 -15 -93 -23 -136 -23c-109 0 -148 42 -148 113c0 14 1 30 4 46l9 52
c19 109 57 168 221 168zM180 492l-11 -61c-2 -13 -4 -24 -4 -33c0 -38 20 -50 86 -50c40 0 88 9 130 26l20 112c2 12 3 23 3 32c0 46 -26 66 -99 66c-82 0 -113 -23 -125 -92z" />
    <glyph glyph-name="less.tnum" 
d="M438 -10l-382 228v52l381 227l32 -53l-339 -200l339 -202z" />
    <glyph glyph-name="equal.tnum" 
d="M79 305v59h367v-59h-367zM79 124v59h367v-59h-367z" />
    <glyph glyph-name="greater.tnum" 
d="M484 218l-382 -228l-31 52l339 202l-339 200l32 53l381 -227v-52z" />
    <glyph glyph-name="cent.tnum" 
d="M212 -10l17 90c-84 3 -119 46 -119 109c0 7 1 21 4 38l32 181c21 121 70 169 173 177l17 92h65l-17 -92c30 -3 63 -10 90 -20l-18 -66c-34 11 -72 17 -104 17c-79 0 -109 -27 -126 -119l-32 -182c-1 -7 -2 -14 -2 -21c0 -31 16 -43 58 -43c44 0 102 14 151 33l11 -67
c-35 -16 -75 -28 -118 -34l-17 -93h-65z" />
    <glyph glyph-name="sterling.tnum" 
d="M40 0l12 70c92 54 144 117 144 195c0 12 -1 22 -3 36h-114l8 64h89c-16 39 -26 83 -26 119c0 113 58 172 206 172c48 0 114 -10 155 -23c-5 -21 -9 -43 -14 -65c-39 11 -97 17 -141 17c-79 0 -125 -14 -125 -103c0 -35 13 -85 27 -117h190l-10 -64h-165
c2 -12 3 -27 3 -38c0 -70 -47 -145 -117 -194h284l-12 -69h-391z" />
    <glyph glyph-name="section.tnum" 
d="M396 590c-45 13 -96 23 -134 23c-52 0 -67 -14 -74 -58c-7 -38 -10 -82 -10 -129c0 -126 20 -271 51 -413l-70 -13c-32 136 -54 293 -54 428c0 59 3 96 9 136c14 78 46 112 152 112c47 0 106 -13 145 -28zM159 -100c45 -13 96 -23 134 -23c52 0 67 14 74 58
c7 38 10 82 10 129c0 126 -20 271 -51 413l70 13c32 -136 54 -293 54 -428c0 -59 -3 -96 -9 -136c-14 -78 -46 -112 -152 -112c-47 0 -106 13 -145 28z" />
    <glyph glyph-name="yen.tnum" 
d="M72 305l10 59h94l-66 282h81l78 -356l196 356h95l-166 -282h88l-10 -59h-113l-63 -107l-1 -5h157l-10 -57h-157l-24 -136h-84l24 136h-159l10 57h159l2 12l-24 100h-117z" />
    <glyph glyph-name="florin.tnum" 
d="M531 625c-24 7 -55 12 -76 12c-53 0 -68 -11 -81 -61l-39 -150h133l-17 -69h-135l-114 -435c-23 -86 -49 -119 -137 -119c-27 0 -64 8 -86 19l17 63c18 -7 41 -13 61 -13c41 0 53 14 65 59l112 426h-87l19 69h87l42 160c21 82 53 120 152 120c37 0 74 -8 100 -18z" />
    <glyph glyph-name="endash.tnum" 
d="M104 247l11 69h354l-12 -69h-353z" />
    <glyph glyph-name="divide.tnum" 
d="M219 364v92h81v-92h-81zM56 212v62h406v-62h-406zM219 30v92h81v-92h-81z" />
    <glyph glyph-name="Euro.tnum" 
d="M62 378l10 53h83l6 31c25 139 97 194 258 194c39 0 79 -4 118 -15l-16 -67c-38 7 -74 10 -109 10c-113 0 -153 -33 -171 -133l-4 -20h230l-9 -53h-230l-18 -104h229l-9 -53h-229l-5 -29c-3 -16 -4 -30 -4 -42c0 -60 25 -88 130 -88c36 0 74 4 112 12l3 -69
c-40 -10 -76 -15 -132 -15c-141 0 -196 62 -196 154c0 15 2 31 5 49l5 28h-85l10 53h84l18 104h-84z" />
    <glyph glyph-name="perthousand.tnum" horiz-adv-x="1211" 
d="M274 -10l-52 27l354 659l52 -27zM195 313c-91 0 -127 42 -127 102c0 11 1 22 3 33l18 102c15 86 53 126 167 126c86 0 129 -41 129 -104c0 -10 -2 -21 -3 -27l-19 -109c-13 -75 -50 -123 -168 -123zM299 448l17 97c1 5 2 15 2 21c0 34 -18 52 -70 52
c-61 0 -84 -19 -94 -73l-18 -102c-1 -7 -2 -15 -2 -22c0 -32 17 -50 70 -50c67 0 86 25 95 77zM591 -10c-91 0 -127 42 -127 102c0 11 1 22 3 33l18 102c15 86 53 126 167 126c86 0 129 -41 129 -104c0 -10 -2 -21 -3 -27l-19 -109c-13 -75 -50 -123 -168 -123zM695 125
l17 97c1 5 2 15 2 21c0 34 -18 52 -70 52c-61 0 -84 -19 -94 -73l-18 -102c-1 -7 -2 -15 -2 -22c0 -32 17 -50 70 -50c67 0 86 25 95 77zM961 -10c-91 0 -127 42 -127 102c0 11 1 22 3 33l18 102c15 86 53 126 167 126c86 0 129 -41 129 -104c0 -10 -2 -21 -3 -27l-19 -109
c-13 -75 -50 -123 -168 -123zM1065 125l17 97c1 5 2 15 2 21c0 34 -18 52 -70 52c-61 0 -84 -19 -94 -73l-18 -102c-1 -7 -2 -15 -2 -22c0 -32 17 -50 70 -50c67 0 86 25 95 77z" />
    <glyph glyph-name="minusonum.tnum" 
d="M129 207v71h267v-71h-267z" />
    <glyph glyph-name="multiplyonum.tnum" 
d="M403 51l-141 142l-141 -142l-49 49l141 142l-141 142l49 49l141 -141l141 141l49 -49l-141 -142l141 -142z" />
    <glyph glyph-name="numbersignonum.tnum" 
d="M460 122h-77l-25 -122h-62l25 122h-149l-26 -122h-62l25 122h-84l13 57h84l34 155h-84l12 57h83l26 119h63l-26 -119h149l26 119h62l-25 -119h78l-12 -57h-78l-34 -155h77zM218 334l-34 -155h150l34 155h-150z" />
    <glyph glyph-name="dollaronum.tnum" 
d="M165 -99l15 91c-45 4 -89 15 -129 33l16 62c44 -14 107 -28 158 -28c84 0 104 20 113 70c11 62 4 69 -95 97c-133 38 -140 70 -122 167c17 93 64 121 165 126l17 90h73l-17 -91c38 -2 72 -8 109 -17l-15 -67c-47 10 -104 16 -139 16c-87 0 -104 -9 -115 -69
c-10 -56 -4 -62 86 -90c133 -42 151 -65 134 -161c-16 -91 -48 -132 -166 -138l-15 -91h-73z" />
    <glyph glyph-name="percentonum.tnum" horiz-adv-x="743" 
d="M325 342c-12 -69 -41 -111 -149 -111c-80 0 -112 35 -112 88c0 7 0 17 3 33l12 68c12 68 46 100 146 100c71 0 114 -34 114 -91c0 -6 -1 -15 -2 -21zM141 415l-13 -75c-1 -7 -2 -12 -2 -18c0 -23 11 -37 59 -37c54 0 72 20 78 55l12 70c1 6 2 13 2 18c0 23 -13 38 -60 38
c-54 0 -69 -13 -76 -51zM669 101c-12 -69 -41 -111 -149 -111c-80 0 -112 35 -112 88c0 7 0 17 3 33l12 68c12 68 46 100 146 100c71 0 114 -34 114 -91c0 -6 -1 -15 -2 -21zM485 174l-13 -75c-1 -7 -2 -12 -2 -18c0 -23 11 -37 59 -37c54 0 72 20 78 55l12 70
c1 6 2 13 2 18c0 23 -13 38 -60 38c-54 0 -69 -13 -76 -51zM191 21l316 499l46 -31l-315 -499z" />
    <glyph glyph-name="plusonum.tnum" 
d="M297 209v-170h-71v170h-167v68h167v170h71v-170h166v-68h-166z" />
    <glyph glyph-name="zeroonum.tnum" 
d="M216 -10c-133 0 -178 60 -178 138c0 13 2 30 4 42l32 181c20 114 82 169 234 169c122 0 179 -64 179 -146c0 -10 -1 -22 -3 -33l-32 -182c-18 -102 -63 -169 -236 -169zM372 169l30 172c2 11 3 22 3 32c0 49 -28 76 -109 76c-94 0 -129 -34 -142 -108l-30 -171
c-2 -12 -3 -24 -3 -35c0 -47 25 -74 108 -74c94 0 130 30 143 108z" />
    <glyph glyph-name="oneonum.tnum" 
d="M45 0l11 68h160l63 357l-160 -60l-24 65l205 80h76l-78 -442h159l-11 -68h-401z" />
    <glyph glyph-name="twoonum.tnum" 
d="M40 0c3 22 7 43 10 65c76 57 106 80 167 127c129 99 147 119 155 165l3 17c1 7 2 14 2 19c0 42 -29 54 -90 54c-45 0 -95 -7 -161 -24l-12 66c55 18 131 31 178 31c104 0 168 -41 168 -118c0 -10 -2 -22 -3 -27l-2 -12c-14 -79 -25 -99 -133 -185
c-21 -16 -120 -92 -139 -107h233c-4 -24 -7 -47 -12 -71h-364z" />
    <glyph glyph-name="threeonum.tnum" 
d="M190 -146c-47 0 -116 7 -172 27l19 65c48 -13 103 -21 154 -21c102 0 123 24 135 92l8 45c1 7 2 12 2 19c0 45 -33 72 -100 72h-126l12 71h127c69 0 105 30 113 77l12 69c1 5 2 15 2 22c0 43 -31 58 -102 58c-46 0 -104 -5 -144 -13l-7 66c42 10 114 17 166 17
c119 0 170 -49 170 -120c0 -10 -1 -20 -3 -31l-11 -63c-11 -64 -35 -99 -104 -121c47 -9 76 -51 76 -102c0 -5 0 -15 -2 -27l-8 -44c-19 -104 -51 -158 -217 -158z" />
    <glyph glyph-name="fouronum.tnum" 
d="M378 43l-32 -179h-81l31 179h-275l6 79l318 388h115l-71 -399h87l-13 -68h-85zM366 433l-260 -322h202z" />
    <glyph glyph-name="fiveonum.tnum" 
d="M182 -146c-44 0 -99 5 -158 24l17 67c52 -12 94 -19 149 -19c100 0 123 28 136 98l6 36c1 7 3 18 3 28c0 48 -21 61 -106 66c-36 2 -83 5 -138 7l62 349h332l-12 -72h-251l-37 -210c37 -2 61 -4 98 -7c82 -7 136 -43 136 -117c0 -12 -2 -27 -4 -38l-6 -37
c-21 -119 -56 -175 -227 -175z" />
    <glyph glyph-name="sixonum.tnum" 
d="M227 -10c-126 0 -168 51 -168 127c0 15 1 31 4 47l47 269c29 166 89 223 275 223c36 0 80 -4 121 -17l-15 -66c-37 9 -74 12 -100 12c-148 0 -179 -39 -199 -153l-15 -86c43 15 93 23 136 23c109 0 148 -42 148 -113c0 -14 -1 -30 -4 -46l-9 -52
c-18 -102 -57 -168 -221 -168zM365 154l11 61c2 13 4 24 4 33c0 38 -21 50 -86 50c-44 0 -88 -9 -130 -26l-20 -112c-2 -12 -3 -23 -3 -32c0 -46 26 -66 99 -66c82 0 113 23 125 92z" />
    <glyph glyph-name="sevenonum.tnum" 
d="M121 -136l-61 40l344 535h-328l12 71h407l-5 -70z" />
    <glyph glyph-name="eightonum.tnum" 
d="M217 -10c-125 0 -182 40 -182 120c0 12 2 25 4 38l6 33c14 78 57 118 155 150c-56 35 -87 72 -87 125c0 11 1 19 2 26l3 18c19 109 72 156 215 156c103 0 165 -49 165 -123c0 -9 -1 -17 -3 -28l-5 -29c-12 -68 -51 -119 -136 -147c70 -33 104 -68 104 -124
c0 -9 -1 -18 -3 -29l-6 -33c-20 -110 -67 -153 -232 -153zM409 471l6 33c1 7 2 14 2 20c0 40 -27 62 -96 62c-82 0 -113 -30 -122 -81l-5 -29c-1 -6 -2 -12 -2 -18c0 -40 29 -66 90 -96c76 31 118 59 127 109zM369 148l5 28c2 10 3 18 3 26c0 42 -29 56 -108 91
c-106 -40 -135 -61 -145 -116l-5 -29c-2 -11 -3 -22 -3 -29c0 -44 29 -59 113 -59c93 0 128 20 140 88z" />
    <glyph glyph-name="nineonum.tnum" 
d="M298 520c118 0 168 -51 168 -127c0 -15 -1 -31 -4 -47l-47 -269c-29 -166 -83 -223 -275 -223c-36 0 -80 4 -121 17l15 66c37 -9 74 -12 100 -12c153 0 179 39 199 153l15 86c-43 -15 -93 -23 -136 -23c-109 0 -148 42 -148 113c0 14 1 30 4 46l9 52
c19 109 57 168 221 168zM160 356l-11 -61c-2 -13 -4 -24 -4 -33c0 -38 20 -50 86 -50c40 0 88 9 130 26l20 112c2 12 3 23 3 32c0 46 -26 66 -99 66c-82 0 -113 -23 -125 -92z" />
    <glyph glyph-name="lessonum.tnum" 
d="M432 -10l-382 228v52l381 227l32 -53l-339 -200l339 -202z" />
    <glyph glyph-name="equalonum.tnum" 
d="M102 305v59h367v-59h-367zM102 124v59h367v-59h-367z" />
    <glyph glyph-name="greateronum.tnum" 
d="M486 218l-382 -228l-31 52l339 202l-339 200l32 53l381 -227v-52z" />
    <glyph glyph-name="centonum.tnum" 
d="M181 -82l17 90c-84 3 -119 46 -119 109c0 7 1 21 4 38l27 154c21 121 70 169 173 177l17 92h65l-17 -92c30 -3 63 -10 90 -20l-18 -64c-33 10 -72 16 -104 16c-79 0 -110 -28 -127 -120l-27 -155c-1 -7 -2 -14 -2 -21c0 -31 17 -44 59 -44c44 0 102 14 151 33l11 -66
c-35 -16 -75 -28 -118 -34l-17 -93h-65z" />
    <glyph glyph-name="sterlingonum.tnum" 
d="M58 224l11 62h80c-14 33 -21 70 -21 86c0 106 58 148 197 148c45 0 105 -9 148 -25l-15 -63c-42 11 -100 18 -141 18c-70 0 -105 -10 -105 -78c0 -30 13 -65 24 -86h189l-13 -62h-164c1 -5 1 -12 1 -18c0 -54 -26 -99 -87 -138h263l-12 -68h-377l11 65
c62 32 118 77 118 140c0 6 -1 14 -2 19h-105z" />
    <glyph glyph-name="sectiononum.tnum" 
d="M225 20l-61 -30c-56 98 -81 201 -81 303c0 38 3 76 10 115c13 78 56 112 151 112c47 0 106 -10 146 -24l-15 -59c-43 12 -97 20 -135 20c-49 0 -68 -15 -75 -59c-6 -37 -9 -72 -9 -108c0 -92 20 -173 69 -270zM299 315l61 30c56 -98 81 -201 81 -303
c0 -38 -3 -76 -10 -115c-13 -78 -56 -112 -151 -112c-47 0 -106 10 -146 24l15 59c43 -12 97 -20 135 -20c49 0 68 15 75 59c6 37 9 72 9 108c0 92 -20 173 -69 270z" />
    <glyph glyph-name="yenonum.tnum" 
d="M50 214l10 55h93l-86 241h80l100 -288l194 288h89l-170 -241h92l-10 -55h-121l-45 -62l-3 -16h155l-9 -53h-155l-14 -83h-81l14 83h-156l9 53h156l4 20l-23 58h-123z" />
    <glyph glyph-name="florinonum.tnum" 
d="M470 441c-21 7 -54 13 -76 13c-51 0 -67 -11 -81 -61l-33 -131h133l-17 -67h-136l-70 -273c-22 -86 -45 -119 -134 -119c-27 0 -62 7 -88 19l17 63c17 -7 43 -13 62 -13c44 0 52 14 63 56l69 267h-88l20 67h87l36 141c22 82 54 120 151 120c33 0 72 -7 102 -19z" />
    <glyph glyph-name="endashonum.tnum" 
d="M80 247l11 69h354l-12 -69h-353z" />
    <glyph glyph-name="divideonum.tnum" 
d="M222 364v92h81v-92h-81zM59 212v62h406v-62h-406zM222 30v92h81v-92h-81z" />
    <glyph glyph-name="Euroonum.tnum" 
d="M38 170l9 45h73l15 83h-74l8 46h74l5 28c19 109 66 148 211 148c43 0 101 -11 141 -23l-16 -63c-46 11 -90 17 -130 17c-98 0 -113 -14 -126 -87l-3 -20h189l-7 -46h-190l-15 -83h190l-8 -45h-190l-5 -28c-12 -68 7 -83 106 -83c36 0 78 5 123 13l2 -64
c-37 -11 -96 -18 -138 -18c-146 0 -193 52 -174 157l4 23h-74z" />
    <glyph glyph-name="perthousandonum.tnum" horiz-adv-x="1063" 
d="M190 21l316 499l46 -31l-315 -499zM325 342c-12 -69 -41 -111 -149 -111c-80 0 -112 35 -112 88c0 7 0 17 3 33l12 68c12 68 46 100 146 100c71 0 114 -34 114 -91c0 -6 -1 -15 -2 -21zM141 415l-13 -75c-1 -7 -2 -12 -2 -18c0 -23 11 -37 59 -37c54 0 72 20 78 55l12 70
c1 6 2 13 2 18c0 23 -13 38 -60 38c-54 0 -69 -13 -76 -51zM669 101c-12 -69 -41 -111 -149 -111c-80 0 -112 35 -112 88c0 7 0 17 3 33l12 68c12 68 46 100 146 100c71 0 114 -34 114 -91c0 -6 -1 -15 -2 -21zM485 174l-13 -75c-1 -7 -2 -12 -2 -18c0 -23 11 -37 59 -37
c54 0 72 20 78 55l12 70c1 6 2 13 2 18c0 23 -13 38 -60 38c-54 0 -69 -13 -76 -51zM989 101c-12 -69 -41 -111 -149 -111c-80 0 -112 35 -112 88c0 7 0 17 3 33l12 68c12 68 46 100 146 100c71 0 114 -34 114 -91c0 -6 -1 -15 -2 -21zM805 174l-13 -75c-1 -7 -2 -12 -2 -18
c0 -23 11 -37 59 -37c54 0 72 20 78 55l12 70c1 6 2 13 2 18c0 23 -13 38 -60 38c-54 0 -69 -13 -76 -51z" />
    <glyph glyph-name="minussmcp.tnum" 
d="M129 207v71h267v-71h-267z" />
    <glyph glyph-name="multiplysmcp.tnum" 
d="M426 51l-141 142l-141 -142l-49 49l141 142l-141 142l49 49l141 -141l141 141l49 -49l-141 -142l141 -142z" />
    <glyph glyph-name="numbersignsmcp.tnum" 
d="M512 344h-79l-38 -164h78l-13 -55h-78l-28 -125h-62l28 125h-152l-28 -125h-62l28 125h-80l13 55h81l37 164h-79l13 55h79l29 121h61l-28 -121h152l29 121h61l-28 -121h78zM219 344l-38 -164h152l38 164h-152z" />
    <glyph glyph-name="dollarsmcp.tnum" 
d="M162 -96l17 96c-44 4 -83 14 -126 30l18 64c45 -14 95 -26 146 -26c66 0 109 5 120 68s10 73 -89 94c-128 27 -143 69 -128 155c17 98 52 134 167 137l17 91h71l-17 -92c41 -4 74 -9 111 -19l-14 -67c-40 10 -102 18 -140 18c-91 0 -103 -11 -114 -72s-9 -64 93 -89
c126 -31 142 -60 125 -155c-17 -96 -57 -130 -170 -138l-17 -95h-70z" />
    <glyph glyph-name="percentsmcp.tnum" horiz-adv-x="743" 
d="M183 24l321 506l50 -32l-322 -508zM331 420l-13 -74c-13 -72 -45 -110 -147 -110c-80 0 -110 39 -110 91c0 10 1 20 3 30l11 63c13 73 49 110 148 110c66 0 110 -33 110 -86c0 -8 -1 -19 -2 -24zM255 345l13 76c1 6 1 10 1 13c0 25 -16 40 -56 40c-50 0 -68 -15 -75 -54
l-12 -69c-1 -6 -2 -12 -2 -17c0 -25 14 -42 57 -42c52 0 68 19 74 53zM675 174l-13 -74c-13 -72 -45 -110 -147 -110c-80 0 -110 39 -110 91c0 10 1 20 3 30l11 63c13 73 49 110 148 110c66 0 110 -33 110 -86c0 -8 -1 -19 -2 -24zM599 99l13 76c1 6 1 10 1 13
c0 25 -16 40 -56 40c-50 0 -68 -15 -75 -54l-12 -69c-1 -6 -2 -12 -2 -17c0 -25 14 -42 57 -42c52 0 68 19 74 53z" />
    <glyph glyph-name="plussmcp.tnum" 
d="M298 209v-170h-71v170h-167v68h167v170h71v-170h166v-68h-166z" />
    <glyph glyph-name="zerosmcp.tnum" 
d="M215 -10c-122 0 -172 55 -172 127c0 12 2 25 3 31l42 238c18 100 84 144 222 144c115 0 172 -55 172 -131c0 -9 -1 -19 -3 -29l-41 -233c-15 -85 -63 -147 -223 -147zM358 146l40 229c1 7 2 14 2 20c0 43 -31 64 -103 64c-82 0 -119 -27 -130 -90l-39 -222
c-1 -6 -2 -15 -2 -24c0 -44 29 -62 101 -62c81 0 120 24 131 85z" />
    <glyph glyph-name="onesmcp.tnum" 
d="M38 0l11 70h156l64 359l-151 -71l-29 62l202 100h76l-80 -450h161l-11 -70h-399z" />
    <glyph glyph-name="twosmcp.tnum" 
d="M48 0l8 66c75 61 92 79 171 143c112 90 126 108 134 154l5 29c1 6 3 16 3 23c0 32 -22 42 -98 42c-37 0 -98 -7 -145 -18l-8 68c51 13 121 23 174 23c103 0 160 -32 160 -103c0 -12 -2 -22 -3 -29l-6 -35c-11 -62 -19 -89 -122 -177c-80 -68 -94 -80 -138 -115h218
l-11 -71h-342z" />
    <glyph glyph-name="threesmcp.tnum" 
d="M188 -10c-41 0 -99 7 -142 22l17 62c39 -11 91 -18 130 -18c82 0 114 11 123 64l9 50c1 5 2 11 2 15c0 33 -27 44 -79 44h-125l12 65h120c60 0 82 18 89 58l10 56c1 6 2 12 2 16c0 33 -25 40 -88 40c-38 0 -93 -5 -133 -13l-3 62c40 10 104 17 151 17
c112 0 155 -33 155 -93c0 -8 -1 -17 -3 -28l-11 -62c-7 -40 -24 -67 -74 -84c39 -10 57 -41 57 -78c0 -8 -1 -14 -2 -20l-9 -51c-16 -90 -65 -124 -208 -124z" />
    <glyph glyph-name="foursmcp.tnum" 
d="M380 123l-21 -123h-79l22 123h-273l5 70l308 327h109l-59 -334h72l-11 -63h-73zM359 447l-239 -261h193z" />
    <glyph glyph-name="fivesmcp.tnum" 
d="M200 -10c-46 0 -102 7 -147 23l16 65c48 -12 93 -18 144 -18c81 0 110 11 120 65l5 29c1 8 2 13 2 20c0 38 -24 53 -86 56c-52 3 -86 5 -148 7l50 283h316l-11 -70h-237l-27 -151c30 -1 53 -2 85 -4c88 -5 141 -39 141 -110c0 -9 -1 -19 -3 -31l-4 -24
c-17 -95 -48 -140 -216 -140z" />
    <glyph glyph-name="sixsmcp.tnum" 
d="M225 -10c-119 0 -160 40 -160 107c0 10 1 21 3 33l41 233c23 131 82 167 225 167c43 0 98 -8 142 -23l-14 -61c-43 11 -98 17 -133 17c-96 0 -122 -10 -141 -117l-11 -62c33 10 81 18 120 18c97 0 142 -35 142 -98c0 -8 -2 -22 -3 -28l-7 -39c-17 -96 -49 -147 -204 -147
zM348 136l8 45c1 7 1 10 1 14c0 29 -22 38 -81 38c-35 0 -77 -10 -112 -23l-14 -79c-2 -12 -2 -20 -2 -24c0 -37 24 -49 89 -49c78 0 100 16 111 78z" />
    <glyph glyph-name="sevensmcp.tnum" 
d="M167 0h-90l322 452h-295l13 68h377l-5 -64z" />
    <glyph glyph-name="eightsmcp.tnum" 
d="M221 -10c-121 0 -168 48 -168 113c0 4 1 17 3 28l2 11c10 58 46 99 127 124c-67 39 -75 79 -67 125l2 13c15 84 68 126 196 126c98 0 154 -39 155 -101c0 -7 -1 -14 -2 -21l-5 -28c-9 -52 -34 -87 -113 -116c49 -19 89 -53 89 -106c0 -7 -1 -14 -2 -22l-3 -18
c-17 -94 -68 -128 -214 -128zM389 392l2 11c1 6 1 10 1 13c0 31 -24 50 -88 50c-72 0 -99 -21 -107 -64l-3 -16c-8 -45 17 -67 80 -91c62 21 106 44 115 97zM356 119l3 17c1 7 2 14 2 19c0 39 -31 55 -97 79c-78 -25 -119 -47 -127 -91l-3 -18c-1 -6 -2 -14 -2 -18
c0 -32 21 -51 100 -51s116 16 124 63z" />
    <glyph glyph-name="ninesmcp.tnum" 
d="M302 530c108 0 158 -45 158 -117c0 -10 -1 -21 -3 -32l-39 -224c-23 -131 -82 -167 -225 -167c-47 0 -109 11 -145 26l14 60c47 -13 101 -19 136 -19c96 0 123 16 141 117l11 62c-33 -10 -81 -18 -120 -18c-97 0 -141 35 -141 98c0 9 1 18 3 31l7 38
c18 96 48 145 203 145zM179 386l-8 -45c-1 -7 -1 -14 -1 -16c0 -29 22 -38 81 -38c35 0 71 6 111 21l15 81c1 6 3 17 3 25c0 37 -25 48 -90 48c-78 0 -100 -14 -111 -76z" />
    <glyph glyph-name="lesssmcp.tnum" 
d="M432 -10l-391 228v52l390 227l30 -54l-347 -199l350 -200z" />
    <glyph glyph-name="equalsmcp.tnum" 
d="M86 305v59h367v-59h-367zM86 124v59h367v-59h-367z" />
    <glyph glyph-name="greatersmcp.tnum" 
d="M110 -10l-32 54l350 200l-347 199l30 54l390 -227v-52z" />
    <glyph glyph-name="centsmcp.tnum" 
d="M196 -81l20 110c-95 9 -134 47 -134 116c0 16 2 31 4 42l28 159c17 96 69 141 183 144l19 111h75l-19 -110c24 0 67 -6 100 -15l-13 -66c-43 8 -89 12 -129 12c-87 0 -122 -13 -135 -87l-27 -154c-2 -11 -3 -21 -3 -27c0 -45 28 -57 109 -57c42 0 83 4 129 12v-67
c-36 -9 -73 -13 -113 -15l-19 -108h-75z" />
    <glyph glyph-name="sterlingsmcp.tnum" 
d="M73 231l11 60h80c-11 28 -20 62 -20 89c0 102 59 150 198 150c45 0 103 -9 147 -25l-15 -62c-36 10 -92 18 -127 18c-74 0 -120 -13 -120 -79c0 -33 12 -65 23 -91h190l-13 -60h-166v-10c0 -61 -24 -111 -88 -155h266l-12 -66h-377l12 63c65 37 117 88 117 152
c0 5 0 10 -1 16h-105z" />
    <glyph glyph-name="sectionsmcp.tnum" 
d="M246 21l-63 -31c-56 98 -87 211 -87 313c0 38 3 76 10 115c14 78 49 112 152 112c47 0 105 -10 145 -24l-14 -59c-44 11 -97 20 -135 20c-49 0 -68 -15 -75 -59c-6 -37 -9 -72 -9 -108c0 -88 21 -171 76 -279zM311 340l63 31c56 -98 87 -211 87 -313
c0 -38 -3 -76 -10 -115c-14 -78 -49 -112 -152 -112c-47 0 -105 10 -145 24l14 59c44 -11 97 -20 135 -20c49 0 68 15 75 59c6 37 9 72 9 108c0 88 -21 171 -76 279z" />
    <glyph glyph-name="yensmcp.tnum" 
d="M70 220l10 52h92l-88 248h82l101 -292l191 292h94l-171 -248h97l-10 -52h-122l-51 -74l-2 -9h161l-10 -52h-160l-15 -85h-83l15 85h-155l10 52h154l4 19l-23 64h-121z" />
    <glyph glyph-name="florinsmcp.tnum" 
d="M476 441c-24 8 -54 13 -76 13c-51 0 -68 -11 -81 -61l-34 -131h133l-16 -67h-136l-70 -273c-23 -86 -52 -119 -134 -119c-27 0 -66 8 -89 20l17 63c18 -7 40 -14 63 -14c39 0 52 14 62 56l69 267h-87l19 67h88l36 141c21 82 54 120 151 120c33 0 72 -7 101 -19z" />
    <glyph glyph-name="endashsmcp.tnum" 
d="M104 247l11 69h354l-12 -69h-353z" />
    <glyph glyph-name="dividesmcp.tnum" 
d="M219 364v92h81v-92h-81zM56 212v62h406v-62h-406zM219 30v92h81v-92h-81z" />
    <glyph glyph-name="Eurosmcp.tnum" 
d="M79 301l8 44h73l6 35c21 116 88 150 223 150c44 0 94 -6 136 -19l-13 -63c-44 9 -94 14 -130 14c-95 0 -123 -19 -136 -91l-5 -26h195l-8 -44h-194l-15 -83h194l-8 -44h-193l-5 -28c-1 -6 -3 -20 -3 -31c0 -44 25 -57 109 -57c42 0 83 4 129 14l4 -64
c-41 -12 -96 -18 -146 -18c-126 0 -179 41 -179 119c0 12 2 26 4 38l5 27h-74l8 44h73l15 83h-73z" />
    <glyph glyph-name="perthousandsmcp.tnum" horiz-adv-x="1056" 
d="M183 24l321 506l50 -32l-322 -508zM331 420l-13 -74c-13 -72 -45 -110 -147 -110c-80 0 -110 39 -110 91c0 10 1 20 3 30l11 63c13 73 49 110 148 110c66 0 110 -33 110 -86c0 -8 -1 -19 -2 -24zM255 345l13 76c1 6 1 10 1 13c0 25 -16 40 -56 40c-50 0 -68 -15 -75 -54
l-12 -69c-1 -6 -2 -12 -2 -17c0 -25 14 -42 57 -42c52 0 68 19 74 53zM675 174l-13 -74c-13 -72 -45 -110 -147 -110c-80 0 -110 39 -110 91c0 10 1 20 3 30l11 63c13 73 49 110 148 110c66 0 110 -33 110 -86c0 -8 -1 -19 -2 -24zM599 99l13 76c1 6 1 10 1 13
c0 25 -16 40 -56 40c-50 0 -68 -15 -75 -54l-12 -69c-1 -6 -2 -12 -2 -17c0 -25 14 -42 57 -42c52 0 68 19 74 53zM988 174l-13 -74c-13 -72 -45 -110 -147 -110c-80 0 -110 39 -110 91c0 10 1 20 3 30l11 63c13 73 49 110 148 110c66 0 110 -33 110 -86c0 -8 -1 -19 -2 -24
zM912 99l13 76c1 6 1 10 1 13c0 25 -16 40 -56 40c-50 0 -68 -15 -75 -54l-12 -69c-1 -6 -2 -12 -2 -17c0 -25 14 -42 57 -42c52 0 68 19 74 53z" />
    <glyph glyph-name="minus.smcp" horiz-adv-x="392" 
d="M75 245v71h267v-71h-267z" />
    <glyph glyph-name="multiply.smcp" horiz-adv-x="524" 
d="M408 51l-141 142l-141 -142l-49 49l141 142l-141 142l49 49l141 -141l141 141l49 -49l-141 -142l141 -142z" />
    <glyph glyph-name="exclam.smcp" horiz-adv-x="278" 
d="M153 175h-46l6 142l36 203h83l-35 -203zM57 0l19 110h85l-19 -110h-85z" />
    <glyph glyph-name="numbersign.smcp" horiz-adv-x="621" 
d="M592 341h-112l-36 -159h111l-14 -57h-111l-28 -125h-62l28 125h-167l-28 -125h-62l28 125h-109l14 57h109l36 159h-108l14 58h107l29 121h63l-29 -121h166l29 121h63l-29 -121h111zM251 341l-36 -159h167l36 159h-167z" />
    <glyph glyph-name="dollar.smcp" horiz-adv-x="463" 
d="M128 -96l17 96c-44 4 -83 14 -126 30l18 64c45 -14 95 -26 146 -26c66 0 109 5 120 68s10 73 -89 94c-128 27 -143 69 -128 155c17 98 52 134 167 137l17 91h71l-17 -92c41 -4 74 -9 111 -19l-14 -67c-40 10 -102 18 -140 18c-91 0 -103 -11 -114 -72s-9 -64 93 -89
c126 -31 142 -60 125 -155c-17 -96 -57 -130 -170 -138l-17 -95h-70z" />
    <glyph glyph-name="percent.smcp" horiz-adv-x="743" 
d="M183 24l321 506l50 -32l-322 -508zM331 420l-13 -74c-13 -72 -45 -110 -147 -110c-80 0 -110 39 -110 91c0 10 1 20 3 30l11 63c13 73 49 110 148 110c66 0 110 -33 110 -86c0 -8 -1 -19 -2 -24zM255 345l13 76c1 6 1 10 1 13c0 25 -16 40 -56 40c-50 0 -68 -15 -75 -54
l-12 -69c-1 -6 -2 -12 -2 -17c0 -25 14 -42 57 -42c52 0 68 19 74 53zM675 174l-13 -74c-13 -72 -45 -110 -147 -110c-80 0 -110 39 -110 91c0 10 1 20 3 30l11 63c13 73 49 110 148 110c66 0 110 -33 110 -86c0 -8 -1 -19 -2 -24zM599 99l13 76c1 6 1 10 1 13
c0 25 -16 40 -56 40c-50 0 -68 -15 -75 -54l-12 -69c-1 -6 -2 -12 -2 -17c0 -25 14 -42 57 -42c52 0 68 19 74 53z" />
    <glyph glyph-name="ampersand.smcp" horiz-adv-x="571" 
d="M456 229l-37 -212c-67 -20 -130 -27 -190 -27c-146 0 -183 56 -169 135l10 57c9 51 37 77 87 84c-43 23 -49 58 -42 96l10 59c15 85 61 109 197 109c48 0 115 -7 164 -22l-12 -63c-56 10 -120 16 -164 16c-85 0 -99 -14 -107 -59l-9 -50c-6 -34 6 -58 59 -58h294l-10 -65
h-81zM378 229h-144c-56 0 -80 -19 -87 -60l-7 -40c-8 -46 2 -74 98 -74c43 0 76 4 112 11z" />
    <glyph glyph-name="plus.smcp" horiz-adv-x="524" 
d="M298 209v-170h-71v170h-167v68h167v170h71v-170h166v-68h-166z" />
    <glyph glyph-name="zero.smcp" horiz-adv-x="534" 
d="M220 -10c-122 0 -172 55 -172 127c0 12 2 25 3 31l42 238c18 100 84 144 222 144c115 0 172 -55 172 -131c0 -9 -1 -19 -3 -29l-41 -233c-15 -85 -63 -147 -223 -147zM363 146l40 229c1 7 2 14 2 20c0 43 -31 64 -103 64c-82 0 -119 -27 -130 -90l-39 -222
c-1 -6 -2 -15 -2 -24c0 -44 29 -62 101 -62c81 0 120 24 131 85z" />
    <glyph glyph-name="one.smcp" horiz-adv-x="347" 
d="M130 0l76 429l-137 -64l-29 62l188 93h76l-92 -520h-82z" />
    <glyph glyph-name="two.smcp" horiz-adv-x="476" 
d="M25 0l8 66c75 61 92 79 171 143c112 90 126 108 134 154l5 29c1 6 3 16 3 23c0 32 -22 42 -98 42c-37 0 -98 -7 -145 -18l-8 68c51 13 121 23 174 23c103 0 160 -32 160 -103c0 -12 -2 -22 -3 -29l-6 -35c-11 -62 -19 -89 -122 -177c-80 -68 -94 -80 -138 -115h218
l-11 -71h-342z" />
    <glyph glyph-name="three.smcp" horiz-adv-x="458" 
d="M155 -10c-41 0 -99 7 -142 22l17 62c39 -11 91 -18 130 -18c82 0 114 11 123 64l9 50c1 5 2 11 2 15c0 33 -27 44 -79 44h-125l12 65h120c60 0 82 18 89 58l10 56c1 6 2 12 2 16c0 33 -25 40 -88 40c-38 0 -93 -5 -133 -13l-3 62c40 10 104 17 151 17
c112 0 155 -33 155 -93c0 -8 -1 -17 -3 -28l-11 -62c-7 -40 -24 -67 -74 -84c39 -10 57 -41 57 -78c0 -8 -1 -14 -2 -20l-9 -51c-16 -90 -65 -124 -208 -124z" />
    <glyph glyph-name="four.smcp" horiz-adv-x="499" 
d="M365 123l-21 -123h-79l22 123h-275l5 70l306 327h113l-59 -334h82l-11 -63h-83zM344 447l-239 -261h193z" />
    <glyph glyph-name="five.smcp" horiz-adv-x="468" 
d="M176 -10c-46 0 -102 7 -147 23l16 65c48 -12 93 -18 144 -18c81 0 110 11 120 65l5 29c1 8 2 13 2 20c0 38 -24 53 -86 56c-52 3 -86 5 -148 7l50 283h316l-11 -70h-237l-27 -151c30 -1 53 -2 85 -4c88 -5 141 -39 141 -110c0 -9 -1 -19 -3 -31l-4 -24
c-17 -95 -48 -140 -216 -140z" />
    <glyph glyph-name="six.smcp" horiz-adv-x="486" 
d="M210 -10c-119 0 -160 40 -160 107c0 10 1 21 3 33l41 233c23 131 82 167 225 167c43 0 98 -8 142 -23l-14 -61c-43 11 -98 17 -133 17c-96 0 -122 -10 -141 -117l-11 -62c33 10 81 18 120 18c97 0 142 -35 142 -98c0 -8 -2 -22 -3 -28l-7 -39c-17 -96 -49 -147 -204 -147
zM333 136l8 45c1 7 1 10 1 14c0 29 -22 38 -81 38c-35 0 -77 -10 -112 -23l-14 -79c-2 -12 -2 -20 -2 -24c0 -37 24 -49 89 -49c78 0 100 16 111 78z" />
    <glyph glyph-name="seven.smcp" horiz-adv-x="424" 
d="M114 0h-90l322 452h-285l13 68h367l-5 -64z" />
    <glyph glyph-name="eight.smcp" horiz-adv-x="512" 
d="M214 -10c-121 0 -168 48 -168 113c0 4 1 17 3 28l2 11c10 58 46 99 127 124c-67 39 -75 79 -67 125l2 13c15 84 68 126 196 126c98 0 154 -39 155 -101c0 -7 -1 -14 -2 -21l-5 -28c-9 -52 -34 -87 -113 -116c49 -19 89 -53 89 -106c0 -7 -1 -14 -2 -22l-3 -18
c-17 -94 -68 -128 -214 -128zM382 392l2 11c1 6 1 10 1 13c0 31 -24 50 -88 50c-72 0 -99 -21 -107 -64l-3 -16c-8 -45 17 -67 80 -91c62 21 106 44 115 97zM349 119l3 17c1 7 2 14 2 19c0 39 -31 55 -97 79c-78 -25 -119 -47 -127 -91l-3 -18c-1 -6 -2 -14 -2 -18
c0 -32 21 -51 100 -51s116 16 124 63z" />
    <glyph glyph-name="nine.smcp" horiz-adv-x="490" 
d="M282 530c108 0 158 -45 158 -117c0 -10 -1 -21 -3 -32l-39 -224c-23 -131 -82 -167 -225 -167c-47 0 -109 11 -145 26l14 60c47 -13 101 -19 136 -19c96 0 123 16 141 117l11 62c-33 -10 -81 -18 -120 -18c-97 0 -141 35 -141 98c0 9 1 18 3 31l7 38
c18 96 48 145 203 145zM159 386l-8 -45c-1 -7 -1 -14 -1 -16c0 -29 22 -38 81 -38c35 0 71 6 111 21l15 81c1 6 3 17 3 25c0 37 -25 48 -90 48c-78 0 -100 -14 -111 -76z" />
    <glyph glyph-name="less.smcp" horiz-adv-x="554" 
d="M462 -10l-412 228v52l411 227l29 -54l-366 -199l367 -200z" />
    <glyph glyph-name="equal.smcp" horiz-adv-x="482" 
d="M65 305v59h367v-59h-367zM65 124v59h367v-59h-367z" />
    <glyph glyph-name="greater.smcp" horiz-adv-x="554" 
d="M509 218l-412 -228l-29 54l367 200l-366 199l29 54l411 -227v-52z" />
    <glyph glyph-name="question.smcp" horiz-adv-x="451" 
d="M105 0l19 110h85l-19 -110h-85zM181 164l-34 61c43 24 56 32 118 67c48 27 50 33 61 94c2 13 4 25 4 33c0 38 -23 43 -92 43c-38 0 -81 -5 -125 -13l-7 66c55 11 112 15 156 15c104 0 150 -31 150 -104c0 -12 -1 -26 -4 -41c-15 -84 -18 -103 -92 -145
c-77 -44 -94 -53 -135 -76z" />
    <glyph glyph-name="at.smcp" horiz-adv-x="660" 
d="M454 363l-29 -164c6 -2 14 -3 22 -3c82 0 107 71 107 140c0 87 -64 141 -175 141c-154 0 -262 -97 -262 -268c0 -98 54 -166 210 -166c51 0 102 10 159 28l11 -46c-48 -22 -121 -35 -180 -35c-178 0 -262 90 -262 215c0 196 118 325 331 325c145 0 229 -81 229 -191
c0 -105 -52 -188 -164 -188c-28 0 -56 11 -70 27c-25 -13 -51 -21 -87 -21c-51 0 -70 31 -63 71l15 83c10 58 36 75 104 75c31 0 74 -9 104 -23zM346 342c-26 0 -41 -2 -46 -30l-16 -91c-2 -12 5 -20 26 -20c22 0 43 5 64 16l21 118c-12 4 -35 7 -49 7z" />
    <glyph glyph-name="a.smcp" horiz-adv-x="560" 
d="M403 0l-21 118h-233l-63 -118h-87l277 520h109l98 -520h-80zM323 462l-140 -277h189z" />
    <glyph glyph-name="b.smcp" horiz-adv-x="527" 
d="M294 0h-249l92 520h228c91 0 131 -43 119 -111l-10 -57c-7 -41 -22 -71 -82 -87c45 -11 78 -43 69 -95l-10 -56c-13 -74 -45 -114 -157 -114zM392 352l10 57c5 28 -5 45 -49 45h-145l-28 -156h138c44 0 67 14 74 54zM370 120l10 56c7 40 -23 57 -70 57h-141l-29 -167h153
c49 0 71 18 77 54z" />
    <glyph glyph-name="c.smcp" horiz-adv-x="474" 
d="M229 -10c-126 0 -179 41 -179 119c0 12 2 26 4 38l41 233c21 116 84 150 223 150c44 0 95 -6 142 -19l-13 -65c-45 8 -98 14 -136 14c-89 0 -122 -19 -135 -91l-39 -221c-1 -6 -3 -20 -3 -31c0 -44 27 -57 108 -57c42 0 86 5 135 14l4 -66c-49 -11 -102 -18 -152 -18z
" />
    <glyph glyph-name="d.smcp" horiz-adv-x="548" 
d="M257 0h-212l92 520h198c124 0 166 -52 166 -125c0 -13 -1 -26 -4 -43l-35 -198c-17 -97 -50 -154 -205 -154zM381 165l34 192c2 12 3 22 3 31c0 42 -23 61 -92 61h-119l-67 -378h121c87 0 109 30 120 94z" />
    <glyph glyph-name="e.smcp" horiz-adv-x="499" 
d="M45 0l92 520h342l-12 -70h-260l-25 -145h241l-12 -70h-242l-29 -165h261l-12 -70h-344z" />
    <glyph glyph-name="f.smcp" horiz-adv-x="480" 
d="M207 450l-29 -164h244l-11 -70h-245l-38 -216h-83l92 520h344l-11 -70h-263z" />
    <glyph glyph-name="g.smcp" horiz-adv-x="534" 
d="M226 -10c-145 0 -190 55 -172 157l41 233c20 114 74 150 222 150c56 0 116 -8 165 -22l-14 -66c-54 11 -112 17 -157 17c-93 0 -122 -16 -135 -90l-38 -217c-12 -67 -4 -92 99 -92c31 0 74 3 109 10l31 169h77l-39 -223c-49 -16 -121 -26 -189 -26z" />
    <glyph glyph-name="h.smcp" horiz-adv-x="592" 
d="M374 0l41 232h-247l-40 -232h-83l92 520h83l-39 -216h246l39 216h83l-92 -520h-83z" />
    <glyph glyph-name="i.smcp" horiz-adv-x="273" 
d="M50 0l92 520h83l-92 -520h-83z" />
    <glyph glyph-name="j.smcp" horiz-adv-x="258" 
d="M-14 -158l-44 56c96 76 100 85 105 113l90 509h83l-91 -514c-10 -57 -14 -64 -143 -164z" />
    <glyph glyph-name="k.smcp" horiz-adv-x="537" 
d="M364 0l-173 265l243 255h105l-256 -259l174 -261h-93zM45 0l92 520h83l-92 -520h-83z" />
    <glyph glyph-name="l.smcp" horiz-adv-x="465" 
d="M45 0l92 520h83l-79 -447h247l-12 -73h-331z" />
    <glyph glyph-name="m.smcp" horiz-adv-x="712" 
d="M506 0l56 394l-190 -329h-99l-74 337l-81 -402h-82l111 520h94l91 -390l226 390h100l-70 -520h-82z" />
    <glyph glyph-name="n.smcp" horiz-adv-x="607" 
d="M365 0l-166 425l-75 -425h-79l91 520h106l165 -429l76 429h80l-91 -520h-107z" />
    <glyph glyph-name="o.smcp" horiz-adv-x="570" 
d="M239 -10c-134 0 -186 56 -186 134c0 11 1 23 3 35l37 211c20 113 80 160 241 160c123 0 183 -64 183 -145c0 -11 -1 -21 -3 -32l-35 -200c-18 -101 -63 -163 -240 -163zM395 149l37 210c2 9 3 18 3 26c0 50 -34 75 -114 75c-103 0 -134 -28 -147 -101l-35 -200
c-2 -11 -2 -23 -2 -27c0 -46 27 -72 114 -72c90 0 133 27 144 89z" />
    <glyph glyph-name="p.smcp" horiz-adv-x="513" 
d="M294 170h-136l-30 -170h-83l92 520h213c95 0 149 -35 149 -103c0 -8 -2 -20 -3 -26l-16 -90c-15 -86 -52 -131 -186 -131zM398 306l14 80c1 7 2 13 2 19c0 32 -19 45 -75 45h-132l-37 -210h130c68 0 90 20 98 66z" />
    <glyph glyph-name="q.smcp" horiz-adv-x="570" 
d="M383 -86l-10 -60c-88 14 -164 21 -255 22l9 60c92 0 178 -9 256 -22zM239 -10c-134 0 -186 56 -186 134c0 11 1 23 3 35l37 211c20 113 80 160 241 160c123 0 183 -64 183 -145c0 -11 -1 -21 -3 -32l-35 -200c-18 -101 -63 -163 -240 -163zM395 149l37 210c2 9 3 18 3 26
c0 50 -34 75 -114 75c-103 0 -134 -28 -147 -101l-35 -200c-2 -11 -2 -23 -2 -27c0 -46 27 -72 114 -72c90 0 133 27 144 89z" />
    <glyph glyph-name="r.smcp" horiz-adv-x="569" 
d="M307 173h-148l-31 -173h-83l92 520h225c106 0 161 -44 146 -129l-15 -85c-11 -64 -34 -106 -99 -124l93 -182h-89l-90 173h-1zM411 312l13 73c8 46 -7 65 -73 65h-144l-36 -207h142c72 0 90 23 98 69z" />
    <glyph glyph-name="s.smcp" horiz-adv-x="489" 
d="M199 -10c-55 0 -124 12 -173 33l18 66c51 -17 107 -29 166 -29c84 0 103 13 113 70c11 63 6 78 -100 100c-134 28 -142 77 -126 167c19 106 62 133 205 133c42 0 104 -7 157 -23l-14 -67c-50 12 -103 19 -147 19c-96 0 -109 -12 -120 -73c-10 -56 -8 -68 92 -91
c134 -31 153 -66 136 -164s-45 -141 -207 -141z" />
    <glyph glyph-name="t.smcp" horiz-adv-x="475" 
d="M313 447l-78 -447h-83l78 447h-171l13 73h425l-13 -73h-171z" />
    <glyph glyph-name="u.smcp" horiz-adv-x="587" 
d="M248 -10c-141 0 -197 73 -182 158l66 372h83l-65 -367c-10 -58 12 -90 111 -90c87 0 129 29 141 96l64 361h83l-66 -372c-17 -96 -68 -158 -235 -158z" />
    <glyph glyph-name="v.smcp" horiz-adv-x="504" 
d="M273 0h-114l-89 520h79l74 -454l225 454h88z" />
    <glyph glyph-name="w.smcp" horiz-adv-x="789" 
d="M575 0h-110l-37 440l-191 -440h-102l-61 520h75l49 -437l191 437h103l40 -437l201 437h85z" />
    <glyph glyph-name="x.smcp" horiz-adv-x="558" 
d="M0 0l235 266l-133 254h88l103 -199l171 199h99l-230 -259l140 -261h-89l-109 200l-179 -200h-96z" />
    <glyph glyph-name="y.smcp" horiz-adv-x="491" 
d="M276 146l-26 -146h-83l28 156l-130 364h82l101 -292l191 292h94z" />
    <glyph glyph-name="z.smcp" horiz-adv-x="520" 
d="M45 0l-2 62l349 392h-285l11 66h371l1 -63l-348 -391h283l-11 -66h-369z" />
    <glyph glyph-name="cent.smcp" horiz-adv-x="453" 
d="M163 -81l20 110c-95 9 -134 47 -134 116c0 16 2 31 4 42l28 159c17 96 69 141 183 144l19 111h75l-19 -110c24 0 67 -6 100 -15l-13 -66c-43 8 -89 12 -129 12c-87 0 -122 -13 -135 -87l-27 -154c-2 -11 -3 -21 -3 -27c0 -45 28 -57 109 -57c42 0 83 4 129 12v-67
c-36 -9 -73 -13 -113 -15l-19 -108h-75z" />
    <glyph glyph-name="sterling.smcp" horiz-adv-x="518" 
d="M66 231l11 60h80c-11 28 -20 62 -20 89c0 102 59 150 198 150c45 0 103 -9 147 -25l-15 -62c-36 10 -92 18 -127 18c-74 0 -120 -13 -120 -79c0 -33 12 -65 23 -91h190l-13 -60h-166v-10c0 -61 -24 -111 -88 -155h266l-12 -66h-377l12 63c65 37 117 88 117 152
c0 5 0 10 -1 16h-105z" />
    <glyph glyph-name="section.smcp" horiz-adv-x="533" 
d="M233 21l-63 -31c-56 98 -87 211 -87 313c0 38 3 76 10 115c14 78 49 112 152 112c47 0 105 -10 145 -24l-14 -59c-44 11 -97 20 -135 20c-49 0 -68 -15 -75 -59c-6 -37 -9 -72 -9 -108c0 -88 21 -171 76 -279zM298 340l63 31c56 -98 87 -211 87 -313
c0 -38 -3 -76 -10 -115c-14 -78 -49 -112 -152 -112c-47 0 -105 10 -145 24l14 59c44 -11 97 -20 135 -20c49 0 68 15 75 59c6 37 9 72 9 108c0 88 -21 171 -76 279z" />
    <glyph glyph-name="paragraph.smcp" horiz-adv-x="504" 
d="M69 272c0 154 104 248 246 248l-73 -416c-104 0 -173 70 -173 168zM390 520h70l-98 -559c-9 -48 -14 -53 -155 -168l-39 50c111 91 120 98 125 123z" />
    <glyph glyph-name="germandbls.smcp" horiz-adv-x="979" 
d="M199 -10c-55 0 -124 12 -173 33l18 66c51 -17 107 -29 166 -29c84 0 103 13 113 70c11 63 6 78 -100 100c-134 28 -142 77 -126 167c19 106 62 133 205 133c42 0 104 -7 157 -23l-14 -67c-50 12 -103 19 -147 19c-96 0 -109 -12 -120 -73c-10 -56 -8 -68 92 -91
c134 -31 153 -66 136 -164s-45 -141 -207 -141zM689 -10c-55 0 -124 12 -173 33l18 66c51 -17 107 -29 166 -29c84 0 103 13 113 70c11 63 6 78 -100 100c-134 28 -142 77 -126 167c19 106 62 133 205 133c42 0 104 -7 157 -23l-14 -67c-50 12 -103 19 -147 19
c-96 0 -109 -12 -120 -73c-10 -56 -8 -68 92 -91c134 -31 153 -66 136 -164s-45 -141 -207 -141z" />
    <glyph glyph-name="yen.smcp" horiz-adv-x="518" 
d="M53 220l10 52h92l-88 248h80l101 -296l196 296h91l-171 -248h97l-10 -52h-122l-51 -74l-2 -9h161l-10 -52h-160l-15 -85h-83l15 85h-155l10 52h154l4 19l-23 64h-121z" />
    <glyph glyph-name="ae.smcp" horiz-adv-x="755" 
d="M403 0l-21 118h-233l-63 -118h-87l277 520h459l-12 -70h-325l27 -145h254l-12 -70h-229l31 -165h188l-12 -70h-242zM323 462l-140 -277h189z" />
    <glyph glyph-name="oslash.smcp" horiz-adv-x="570" 
d="M58 -60l-30 24l57 73c-22 23 -32 53 -32 87c0 11 1 23 3 35l37 211c20 113 80 160 241 160c49 0 89 -10 118 -28l62 78l30 -23l-62 -79c23 -25 35 -58 35 -93c0 -11 -1 -21 -3 -32l-35 -200c-18 -101 -63 -163 -240 -163c-53 0 -94 9 -123 24zM137 132c0 -10 1 -18 3 -26
l266 337c-19 11 -47 17 -85 17c-103 0 -134 -28 -147 -101l-35 -200c-2 -11 -2 -23 -2 -27zM395 149l37 210c2 9 3 18 3 26c0 10 -2 19 -5 28l-265 -337c18 -11 46 -16 86 -16c90 0 133 27 144 89z" />
    <glyph glyph-name="questiondown.smcp" horiz-adv-x="448" 
d="M355 520l-19 -110h-85l19 110h85zM279 356l34 -61c-43 -24 -56 -32 -118 -67c-48 -27 -50 -33 -61 -94c-2 -13 -4 -25 -4 -33c0 -38 23 -43 92 -43c38 0 81 5 125 13l7 -66c-55 -11 -112 -15 -156 -15c-104 0 -150 31 -150 104c0 12 1 26 4 41c15 84 18 103 92 145
c77 44 94 53 135 76z" />
    <glyph glyph-name="exclamdown.smcp" horiz-adv-x="280" 
d="M133 345h46l-6 -142l-36 -203h-83l35 203zM229 520l-19 -110h-85l19 110h85z" />
    <glyph glyph-name="florin.smcp" horiz-adv-x="477" 
d="M447 441c-24 8 -54 13 -76 13c-51 0 -68 -11 -81 -61l-34 -131h133l-16 -67h-136l-70 -273c-23 -86 -52 -119 -134 -119c-27 0 -66 8 -89 20l17 63c18 -7 40 -14 63 -14c39 0 52 14 62 56l69 267h-87l19 67h88l36 141c21 82 54 120 151 120c33 0 72 -7 101 -19z" />
    <glyph glyph-name="oe.smcp" horiz-adv-x="808" 
d="M698 0h-457c-134 0 -186 56 -186 134c0 11 1 23 3 35l33 191c20 113 80 160 241 160h456l-12 -70h-260l-25 -145h241l-12 -70h-242l-29 -165h261zM139 142c0 -46 27 -72 114 -72h113l67 380h-114c-103 0 -134 -28 -147 -101l-31 -180c-2 -11 -2 -23 -2 -27z" />
    <glyph glyph-name="endash.smcp" horiz-adv-x="486" 
d="M74 247l11 69h354l-12 -69h-353z" />
    <glyph glyph-name="divide.smcp" horiz-adv-x="526" 
d="M223 364v92h81v-92h-81zM60 212v62h406v-62h-406zM223 30v92h81v-92h-81z" />
    <glyph glyph-name="Euro.smcp" horiz-adv-x="497" 
d="M45 301l8 44h73l6 35c21 116 88 150 223 150c44 0 94 -6 136 -19l-13 -63c-44 9 -94 14 -130 14c-95 0 -123 -19 -136 -91l-5 -26h195l-8 -44h-194l-15 -83h194l-8 -44h-193l-5 -28c-1 -6 -3 -20 -3 -31c0 -44 25 -57 109 -57c42 0 83 4 129 14l4 -64
c-41 -12 -96 -18 -146 -18c-126 0 -179 41 -179 119c0 12 2 26 4 38l5 27h-74l8 44h73l15 83h-73z" />
    <glyph glyph-name="fi.smcp" horiz-adv-x="753" 
d="M207 450l-29 -164h244l-11 -70h-245l-38 -216h-83l92 520h344l-11 -70h-263zM530 0l92 520h83l-92 -520h-83z" />
    <glyph glyph-name="fl.smcp" horiz-adv-x="945" 
d="M207 450l-29 -164h244l-11 -70h-245l-38 -216h-83l92 520h344l-11 -70h-263zM525 0l92 520h83l-79 -447h247l-12 -73h-331z" />
    <glyph glyph-name="perthousand.smcp" horiz-adv-x="1056" 
d="M183 24l321 506l50 -32l-322 -508zM331 420l-13 -74c-13 -72 -45 -110 -147 -110c-80 0 -110 39 -110 91c0 10 1 20 3 30l11 63c13 73 49 110 148 110c66 0 110 -33 110 -86c0 -8 -1 -19 -2 -24zM255 345l13 76c1 6 1 10 1 13c0 25 -16 40 -56 40c-50 0 -68 -15 -75 -54
l-12 -69c-1 -6 -2 -12 -2 -17c0 -25 14 -42 57 -42c52 0 68 19 74 53zM675 174l-13 -74c-13 -72 -45 -110 -147 -110c-80 0 -110 39 -110 91c0 10 1 20 3 30l11 63c13 73 49 110 148 110c66 0 110 -33 110 -86c0 -8 -1 -19 -2 -24zM599 99l13 76c1 6 1 10 1 13
c0 25 -16 40 -56 40c-50 0 -68 -15 -75 -54l-12 -69c-1 -6 -2 -12 -2 -17c0 -25 14 -42 57 -42c52 0 68 19 74 53zM988 174l-13 -74c-13 -72 -45 -110 -147 -110c-80 0 -110 39 -110 91c0 10 1 20 3 30l11 63c13 73 49 110 148 110c66 0 110 -33 110 -86c0 -8 -1 -19 -2 -24
zM912 99l13 76c1 6 1 10 1 13c0 25 -16 40 -56 40c-50 0 -68 -15 -75 -54l-12 -69c-1 -6 -2 -12 -2 -17c0 -25 14 -42 57 -42c52 0 68 19 74 53z" />
    <glyph glyph-name="dotlessi.smcp" horiz-adv-x="273" 
d="M50 0l92 520h83l-92 -520h-83z" />
    <glyph glyph-name="acute.smcp" horiz-adv-x="284" 
d="M173 571l-28 49c51 27 72 39 125 75l29 -54c-44 -30 -71 -44 -126 -70z" />
    <glyph glyph-name="breve.smcp" horiz-adv-x="373" 
d="M232 574c-64 0 -104 37 -117 80l46 26c13 -31 35 -51 75 -51s63 18 87 52l40 -29c-22 -44 -62 -78 -131 -78z" />
    <glyph glyph-name="caron.smcp" horiz-adv-x="365" 
d="M120 646l28 42c34 -17 54 -30 86 -52c33 23 54 35 91 53l25 -44c-44 -25 -76 -44 -125 -78c-31 27 -56 47 -105 79z" />
    <glyph glyph-name="cedilla.smcp" horiz-adv-x="303" 
d="M74 -204c-25 0 -52 6 -74 14l13 41c17 -6 39 -11 61 -11c42 0 62 12 62 38c0 17 -13 25 -37 25c-12 0 -31 -1 -47 -3l-9 15l32 91h46l-24 -70c11 2 23 3 31 3c37 0 60 -20 60 -54c0 -57 -39 -89 -114 -89z" />
    <glyph glyph-name="circumflex.smcp" horiz-adv-x="371" 
d="M351 613l-28 -42c-35 17 -54 30 -86 52c-34 -23 -54 -35 -91 -53l-26 44c45 25 76 44 126 78c31 -27 55 -47 105 -79z" />
    <glyph glyph-name="commaaccent.smcp" horiz-adv-x="289" 
d="M28 -158l19 107h82l-19 -107l-67 -101l-33 22l48 79h-30z" />
    <glyph glyph-name="dieresis.smcp" horiz-adv-x="393" 
d="M294 581l15 78h79l-14 -78h-80zM115 581l14 78h79l-14 -78h-79z" />
    <glyph glyph-name="dotaccent.smcp" horiz-adv-x="231" 
d="M125 574l22 124l84 12l-22 -125z" />
    <glyph glyph-name="grave.smcp" horiz-adv-x="296" 
d="M261 618l-32 -47c-56 31 -87 52 -119 79l37 48c34 -28 70 -54 114 -80z" />
    <glyph glyph-name="hungarumlaut.smcp" horiz-adv-x="415" 
d="M170 562l-35 42c39 31 67 57 103 93l39 -46c-38 -37 -70 -63 -107 -89zM328 562l-35 42c39 31 67 57 103 93l39 -46c-38 -37 -70 -63 -107 -89z" />
    <glyph glyph-name="macron.smcp" horiz-adv-x="375" 
d="M120 586l11 59h239l-11 -59h-239z" />
    <glyph glyph-name="ogonek.smcp" horiz-adv-x="324" 
d="M154 -194c-17 -9 -39 -13 -63 -13c-56 0 -91 26 -91 73c0 63 67 104 123 134h66c-69 -39 -119 -80 -119 -121c0 -18 11 -32 41 -32c16 0 27 2 39 6z" />
    <glyph glyph-name="ring.smcp" horiz-adv-x="270" 
d="M190 555c-37 0 -60 23 -60 56c0 51 30 82 84 82c40 0 61 -24 61 -53c0 -46 -24 -85 -85 -85zM209 659c-23 0 -39 -16 -39 -43c0 -15 6 -26 25 -26c27 0 39 19 39 44c0 17 -7 25 -25 25z" />
    <glyph glyph-name="tilde.smcp" horiz-adv-x="405" 
d="M323 576c-45 0 -73 38 -105 38c-24 0 -41 -20 -57 -37l-31 31c22 36 53 63 95 63c41 0 69 -38 103 -38c20 0 30 7 47 29l35 -26c-21 -37 -42 -60 -87 -60z" />
    <glyph glyph-name="aacute.smcp" horiz-adv-x="560" 
d="M403 0l-21 118h-233l-63 -118h-87l277 520h109l98 -520h-80zM323 462l-140 -277h189zM331 571l-28 49c51 27 72 39 125 75l29 -54c-44 -30 -71 -44 -126 -70z" />
    <glyph glyph-name="aeacute.smcp" horiz-adv-x="755" 
d="M403 0l-21 118h-233l-63 -118h-87l277 520h459l-12 -70h-325l27 -145h254l-12 -70h-229l31 -165h188l-12 -70h-242zM323 462l-140 -277h189zM383 571l-28 49c51 27 72 39 125 75l29 -54c-44 -30 -71 -44 -126 -70z" />
    <glyph glyph-name="abreve.smcp" horiz-adv-x="560" 
d="M403 0l-21 118h-233l-63 -118h-87l277 520h109l98 -520h-80zM323 462l-140 -277h189zM344 574c-64 0 -104 37 -117 80l46 26c13 -31 35 -51 75 -51s63 18 87 52l40 -29c-22 -44 -62 -78 -131 -78z" />
    <glyph glyph-name="acircumflex.smcp" horiz-adv-x="560" 
d="M403 0l-21 118h-233l-63 -118h-87l277 520h109l98 -520h-80zM323 462l-140 -277h189zM456 613l-28 -42c-35 17 -54 30 -86 52c-34 -23 -54 -35 -91 -53l-26 44c45 25 76 44 126 78c31 -27 55 -47 105 -79z" />
    <glyph glyph-name="adieresis.smcp" horiz-adv-x="560" 
d="M403 0l-21 118h-233l-63 -118h-87l277 520h109l98 -520h-80zM323 462l-140 -277h189zM393 581l15 78h79l-14 -78h-80zM214 581l14 78h79l-14 -78h-79z" />
    <glyph glyph-name="agrave.smcp" horiz-adv-x="560" 
d="M403 0l-21 118h-233l-63 -118h-87l277 520h109l98 -520h-80zM323 462l-140 -277h189zM368 618l-32 -47c-56 31 -87 52 -119 79l37 48c34 -28 70 -54 114 -80z" />
    <glyph glyph-name="amacron.smcp" horiz-adv-x="560" 
d="M403 0l-21 118h-233l-63 -118h-87l277 520h109l98 -520h-80zM323 462l-140 -277h189zM219 586l11 59h239l-11 -59h-239z" />
    <glyph glyph-name="aogonek.smcp" horiz-adv-x="560" 
d="M448 -194c-17 -9 -39 -13 -63 -13c-56 0 -91 26 -91 73c0 60 51 99 109 134l-21 118h-233l-63 -118h-87l277 520h109l98 -520c-74 -42 -119 -80 -119 -121c0 -18 11 -32 41 -32c16 0 27 2 39 6zM323 462l-140 -277h189z" />
    <glyph glyph-name="atilde.smcp" horiz-adv-x="560" 
d="M403 0l-21 118h-233l-63 -118h-87l277 520h109l98 -520h-80zM323 462l-140 -277h189zM395 576c-45 0 -73 38 -105 38c-24 0 -41 -20 -57 -37l-31 31c22 36 53 63 95 63c41 0 69 -38 103 -38c20 0 30 7 47 29l35 -26c-21 -37 -42 -60 -87 -60z" />
    <glyph glyph-name="aring.smcp" horiz-adv-x="560" 
d="M403 0l-21 118h-233l-63 -118h-87l277 520h109l98 -520h-80zM323 462l-140 -277h189zM336 555c-37 0 -60 23 -60 56c0 51 30 82 84 82c40 0 61 -24 61 -53c0 -46 -24 -85 -85 -85zM355 659c-23 0 -39 -16 -39 -43c0 -15 6 -26 25 -26c27 0 39 19 39 44c0 17 -7 25 -25 25
z" />
    <glyph glyph-name="aringacute.smcp" horiz-adv-x="560" 
d="M339 556c-37 0 -60 23 -60 56c0 50 30 81 83 81c39 0 60 -23 60 -53c0 -45 -25 -84 -83 -84zM357 660c-23 0 -39 -17 -39 -43c0 -16 7 -26 26 -26c26 0 38 19 38 44c0 16 -7 25 -25 25zM366 713l-27 43c37 22 65 39 101 66l31 -47c-33 -22 -73 -45 -105 -62zM403 0
l-21 118h-233l-63 -118h-87l277 520h109l98 -520h-80zM323 462l-140 -277h189z" />
    <glyph glyph-name="cacute.smcp" horiz-adv-x="474" 
d="M229 -10c-126 0 -179 41 -179 119c0 12 2 26 4 38l41 233c21 116 84 150 223 150c44 0 95 -6 142 -19l-13 -65c-45 8 -98 14 -136 14c-89 0 -122 -19 -135 -91l-39 -221c-1 -6 -3 -20 -3 -31c0 -44 27 -57 108 -57c42 0 86 5 135 14l4 -66c-49 -11 -102 -18 -152 -18z
M281 571l-28 49c51 27 72 39 125 75l29 -54c-44 -30 -71 -44 -126 -70z" />
    <glyph glyph-name="ccaron.smcp" horiz-adv-x="474" 
d="M229 -10c-126 0 -179 41 -179 119c0 12 2 26 4 38l41 233c21 116 84 150 223 150c44 0 95 -6 142 -19l-13 -65c-45 8 -98 14 -136 14c-89 0 -122 -19 -135 -91l-39 -221c-1 -6 -3 -20 -3 -31c0 -44 27 -57 108 -57c42 0 86 5 135 14l4 -66c-49 -11 -102 -18 -152 -18z
M209 646l28 42c34 -17 54 -30 86 -52c33 23 54 35 91 53l25 -44c-44 -25 -76 -44 -125 -78c-31 27 -56 47 -105 79z" />
    <glyph glyph-name="ccedilla.smcp" horiz-adv-x="474" 
d="M198 -204c-25 0 -52 6 -74 14l13 41c17 -6 39 -11 61 -11c42 0 62 12 62 38c0 17 -13 25 -37 25c-12 0 -31 -1 -47 -3l-9 15l26 76c-100 8 -143 48 -143 118c0 12 2 26 4 38l41 233c21 116 84 150 223 150c44 0 95 -6 142 -19l-13 -65c-45 8 -98 14 -136 14
c-89 0 -122 -19 -135 -91l-39 -221c-1 -6 -3 -20 -3 -31c0 -44 27 -57 108 -57c42 0 86 5 135 14l4 -66c-46 -10 -95 -17 -142 -18l-18 -54c11 2 23 3 31 3c37 0 60 -20 60 -54c0 -57 -39 -89 -114 -89z" />
    <glyph glyph-name="ccircumflex.smcp" horiz-adv-x="474" 
d="M229 -10c-126 0 -179 41 -179 119c0 12 2 26 4 38l41 233c21 116 84 150 223 150c44 0 95 -6 142 -19l-13 -65c-45 8 -98 14 -136 14c-89 0 -122 -19 -135 -91l-39 -221c-1 -6 -3 -20 -3 -31c0 -44 27 -57 108 -57c42 0 86 5 135 14l4 -66c-49 -11 -102 -18 -152 -18z
M433 613l-28 -42c-35 17 -54 30 -86 52c-34 -23 -54 -35 -91 -53l-26 44c45 25 76 44 126 78c31 -27 55 -47 105 -79z" />
    <glyph glyph-name="cdotaccent.smcp" horiz-adv-x="474" 
d="M229 -10c-126 0 -179 41 -179 119c0 12 2 26 4 38l41 233c21 116 84 150 223 150c44 0 95 -6 142 -19l-13 -65c-45 8 -98 14 -136 14c-89 0 -122 -19 -135 -91l-39 -221c-1 -6 -3 -20 -3 -31c0 -44 27 -57 108 -57c42 0 86 5 135 14l4 -66c-49 -11 -102 -18 -152 -18z
M270 574l22 124l84 12l-22 -125z" />
    <glyph glyph-name="dcaron.smcp" horiz-adv-x="548" 
d="M257 0h-212l92 520h198c124 0 166 -52 166 -125c0 -13 -1 -26 -4 -43l-35 -198c-17 -97 -50 -154 -205 -154zM381 165l34 192c2 12 3 22 3 31c0 42 -23 61 -92 61h-119l-67 -378h121c87 0 109 30 120 94zM215 646l28 42c34 -17 54 -30 86 -52c33 23 54 35 91 53l25 -44
c-44 -25 -76 -44 -125 -78c-31 27 -56 47 -105 79z" />
    <glyph glyph-name="dcroat.smcp" horiz-adv-x="576" 
d="M55 231l11 61h59l40 228h198c124 0 166 -52 166 -125c0 -13 -1 -26 -4 -43l-35 -198c-17 -97 -50 -154 -205 -154h-212l41 231h-59zM409 165l34 192c2 12 3 22 3 31c0 42 -23 61 -92 61h-119l-28 -157h105l-11 -61h-105l-28 -160h121c87 0 109 30 120 94z" />
    <glyph glyph-name="eacute.smcp" horiz-adv-x="499" 
d="M45 0l92 520h342l-12 -70h-260l-25 -145h241l-12 -70h-242l-29 -165h261l-12 -70h-344zM285 571l-28 49c51 27 72 39 125 75l29 -54c-44 -30 -71 -44 -126 -70z" />
    <glyph glyph-name="ebreve.smcp" horiz-adv-x="499" 
d="M45 0l92 520h342l-12 -70h-260l-25 -145h241l-12 -70h-242l-29 -165h261l-12 -70h-344zM324 574c-64 0 -104 37 -117 80l46 26c13 -31 35 -51 75 -51s63 18 87 52l40 -29c-22 -44 -62 -78 -131 -78z" />
    <glyph glyph-name="ecaron.smcp" horiz-adv-x="499" 
d="M45 0l92 520h342l-12 -70h-260l-25 -145h241l-12 -70h-242l-29 -165h261l-12 -70h-344zM218 646l28 42c34 -17 54 -30 86 -52c33 23 54 35 91 53l25 -44c-44 -25 -76 -44 -125 -78c-31 27 -56 47 -105 79z" />
    <glyph glyph-name="ecircumflex.smcp" horiz-adv-x="499" 
d="M45 0l92 520h342l-12 -70h-260l-25 -145h241l-12 -70h-242l-29 -165h261l-12 -70h-344zM436 613l-28 -42c-35 17 -54 30 -86 52c-34 -23 -54 -35 -91 -53l-26 44c45 25 76 44 126 78c31 -27 55 -47 105 -79z" />
    <glyph glyph-name="edieresis.smcp" horiz-adv-x="499" 
d="M45 0l92 520h342l-12 -70h-260l-25 -145h241l-12 -70h-242l-29 -165h261l-12 -70h-344zM367 581l15 78h79l-14 -78h-80zM188 581l14 78h79l-14 -78h-79z" />
    <glyph glyph-name="edotaccent.smcp" horiz-adv-x="499" 
d="M45 0l92 520h342l-12 -70h-260l-25 -145h241l-12 -70h-242l-29 -165h261l-12 -70h-344zM277 574l22 124l84 12l-22 -125z" />
    <glyph glyph-name="egrave.smcp" horiz-adv-x="499" 
d="M45 0l92 520h342l-12 -70h-260l-25 -145h241l-12 -70h-242l-29 -165h261l-12 -70h-344zM368 618l-32 -47c-56 31 -87 52 -119 79l37 48c34 -28 70 -54 114 -80z" />
    <glyph glyph-name="emacron.smcp" horiz-adv-x="499" 
d="M45 0l92 520h342l-12 -70h-260l-25 -145h241l-12 -70h-242l-29 -165h261l-12 -70h-344zM199 586l11 59h239l-11 -59h-239z" />
    <glyph glyph-name="eng.smcp" horiz-adv-x="607" 
d="M365 0l-166 425l-75 -425h-79l91 520h106l165 -429l76 429h80l-97 -553c-10 -59 -18 -77 -147 -174l-42 58c90 68 101 80 110 130l4 19h-26z" />
    <glyph glyph-name="eogonek.smcp" horiz-adv-x="499" 
d="M45 0l92 520h342l-12 -70h-260l-25 -145h241l-12 -70h-242l-29 -165h261l-12 -70h-43c-69 -39 -119 -80 -119 -121c0 -18 11 -32 41 -32c16 0 27 2 39 6l4 -47c-17 -9 -39 -13 -63 -13c-56 0 -91 26 -91 73c0 63 73 106 130 134h-242z" />
    <glyph glyph-name="eth.smcp" horiz-adv-x="575" 
d="M54 231l11 61h59l40 228h198c124 0 166 -52 166 -125c0 -13 -1 -26 -4 -43l-35 -198c-17 -97 -50 -154 -205 -154h-212l41 231h-59zM408 165l34 192c2 12 3 22 3 31c0 42 -23 61 -92 61h-119l-28 -157h105l-11 -61h-105l-28 -160h121c87 0 109 30 120 94z" />
    <glyph glyph-name="gbreve.smcp" horiz-adv-x="534" 
d="M226 -10c-145 0 -190 55 -172 157l41 233c20 114 74 150 222 150c56 0 116 -8 165 -22l-14 -66c-54 11 -112 17 -157 17c-93 0 -122 -16 -135 -90l-38 -217c-12 -67 -4 -92 99 -92c31 0 74 3 109 10l31 169h77l-39 -223c-49 -16 -121 -26 -189 -26zM325 574
c-64 0 -104 37 -117 80l46 26c13 -31 35 -51 75 -51s63 18 87 52l40 -29c-22 -44 -62 -78 -131 -78z" />
    <glyph glyph-name="gcircumflex.smcp" horiz-adv-x="534" 
d="M226 -10c-145 0 -190 55 -172 157l41 233c20 114 74 150 222 150c56 0 116 -8 165 -22l-14 -66c-54 11 -112 17 -157 17c-93 0 -122 -16 -135 -90l-38 -217c-12 -67 -4 -92 99 -92c31 0 74 3 109 10l31 169h77l-39 -223c-49 -16 -121 -26 -189 -26zM441 613l-28 -42
c-35 17 -54 30 -86 52c-34 -23 -54 -35 -91 -53l-26 44c45 25 76 44 126 78c31 -27 55 -47 105 -79z" />
    <glyph glyph-name="gcommaaccent.smcp" horiz-adv-x="534" 
d="M226 -10c-145 0 -190 55 -172 157l41 233c20 114 74 150 222 150c56 0 116 -8 165 -22l-14 -66c-54 11 -112 17 -157 17c-93 0 -122 -16 -135 -90l-38 -217c-12 -67 -4 -92 99 -92c31 0 74 3 109 10l31 169h77l-39 -223c-49 -16 -121 -26 -189 -26zM171 -158l19 107h82
l-19 -107l-67 -101l-33 22l48 79h-30z" />
    <glyph glyph-name="gdotaccent.smcp" horiz-adv-x="534" 
d="M226 -10c-145 0 -190 55 -172 157l41 233c20 114 74 150 222 150c56 0 116 -8 165 -22l-14 -66c-54 11 -112 17 -157 17c-93 0 -122 -16 -135 -90l-38 -217c-12 -67 -4 -92 99 -92c31 0 74 3 109 10l31 169h77l-39 -223c-49 -16 -121 -26 -189 -26zM279 574l22 124l84 12
l-22 -125z" />
    <glyph glyph-name="hbar.smcp" horiz-adv-x="602" 
d="M68 395l9 49h51l14 76h83l-14 -76h246l14 76h83l-14 -76h52l-8 -49h-52l-70 -395h-83l41 232h-247l-40 -232h-83l70 395h-52zM186 304h246l16 91h-246z" />
    <glyph glyph-name="hcircumflex.smcp" horiz-adv-x="592" 
d="M374 0l41 232h-247l-40 -232h-83l92 520h83l-39 -216h246l39 216h83l-92 -520h-83zM467 613l-28 -42c-35 17 -54 30 -86 52c-34 -23 -54 -35 -91 -53l-26 44c45 25 76 44 126 78c31 -27 55 -47 105 -79z" />
    <glyph glyph-name="iacute.smcp" horiz-adv-x="273" 
d="M50 0l92 520h83l-92 -520h-83zM182 571l-28 49c51 27 72 39 125 75l29 -54c-44 -30 -71 -44 -126 -70z" />
    <glyph glyph-name="ibreve.smcp" horiz-adv-x="273" 
d="M198 574c-64 0 -104 37 -117 80l46 26c13 -31 35 -51 75 -51s63 18 87 52l40 -29c-22 -44 -62 -78 -131 -78zM50 0l92 520h83l-92 -520h-83z" />
    <glyph glyph-name="icircumflex.smcp" horiz-adv-x="273" 
d="M50 0l92 520h83l-92 -520h-83zM312 613l-28 -42c-35 17 -54 30 -86 52c-34 -23 -54 -35 -91 -53l-26 44c45 25 76 44 126 78c31 -27 55 -47 105 -79z" />
    <glyph glyph-name="idieresis.smcp" horiz-adv-x="273" 
d="M50 0l92 520h83l-92 -520h-83zM246 581l15 78h79l-14 -78h-80zM67 581l14 78h79l-14 -78h-79z" />
    <glyph glyph-name="igrave.smcp" horiz-adv-x="273" 
d="M50 0l92 520h83l-92 -520h-83zM234 618l-32 -47c-56 31 -87 52 -119 79l37 48c34 -28 70 -54 114 -80z" />
    <glyph glyph-name="imacron.smcp" horiz-adv-x="273" 
d="M77 586l11 59h239l-11 -59h-239zM50 0l92 520h83l-92 -520h-83z" />
    <glyph glyph-name="iogonek.smcp" horiz-adv-x="273" 
d="M119 -194c-17 -9 -39 -13 -63 -13c-56 0 -91 26 -91 73c0 53 41 103 85 134l92 520h83l-92 -520c-69 -39 -98 -77 -98 -121c0 -18 11 -32 41 -32c16 0 27 2 39 6z" />
    <glyph glyph-name="itilde.smcp" horiz-adv-x="273" 
d="M254 576c-45 0 -73 38 -105 38c-24 0 -41 -20 -57 -37l-31 31c22 36 53 63 95 63c41 0 69 -38 103 -38c20 0 30 7 47 29l35 -26c-21 -37 -42 -60 -87 -60zM50 0l92 520h83l-92 -520h-83z" />
    <glyph glyph-name="ij.smcp" horiz-adv-x="531" 
d="M50 0l92 520h83l-92 -520h-83zM259 -158l-44 56c96 76 100 85 105 113l90 509h83l-91 -514c-10 -57 -14 -64 -143 -164z" />
    <glyph glyph-name="jcircumflex.smcp" horiz-adv-x="258" 
d="M-14 -158l-44 56c96 76 100 85 105 113l90 509h83l-91 -514c-10 -57 -14 -64 -143 -164zM303 613l-28 -42c-35 17 -54 30 -86 52c-34 -23 -54 -35 -91 -53l-26 44c45 25 76 44 126 78c31 -27 55 -47 105 -79z" />
    <glyph glyph-name="kcommaaccent.smcp" horiz-adv-x="537" 
d="M364 0l-173 265l243 255h105l-256 -259l174 -261h-93zM45 0l92 520h83l-92 -520h-83zM166 -158l19 107h82l-19 -107l-67 -101l-33 22l48 79h-30z" />
    <glyph glyph-name="lacute.smcp" horiz-adv-x="465" 
d="M45 0l92 520h83l-79 -447h247l-12 -73h-331zM181 571l-28 49c51 27 72 39 125 75l29 -54c-44 -30 -71 -44 -126 -70z" />
    <glyph glyph-name="lcaron.smcp" horiz-adv-x="465" 
d="M45 0l92 520h83l-79 -447h247l-12 -73h-331zM321 407l19 113h84l-19 -113l-75 -108l-31 21l53 87h-31z" />
    <glyph glyph-name="lcommaaccent.smcp" horiz-adv-x="465" 
d="M45 0l92 520h83l-79 -447h247l-12 -73h-331zM151 -158l19 107h82l-19 -107l-67 -101l-33 22l48 79h-30z" />
    <glyph glyph-name="ldot.smcp" horiz-adv-x="465" 
d="M261 211l21 115h84l-21 -115h-84zM45 0l92 520h83l-79 -447h247l-12 -73h-331z" />
    <glyph glyph-name="lslash.smcp" horiz-adv-x="497" 
d="M28 238l99 45l42 237h83l-35 -195l149 68l16 -55l-177 -81l-32 -184h247l-12 -73h-331l38 216l-71 -32z" />
    <glyph glyph-name="nacute.smcp" horiz-adv-x="607" 
d="M365 0l-166 425l-75 -425h-79l91 520h106l165 -429l76 429h80l-91 -520h-107zM346 571l-28 49c51 27 72 39 125 75l29 -54c-44 -30 -71 -44 -126 -70z" />
    <glyph glyph-name="ncaron.smcp" horiz-adv-x="607" 
d="M365 0l-166 425l-75 -425h-79l91 520h106l165 -429l76 429h80l-91 -520h-107zM253 646l28 42c34 -17 54 -30 86 -52c33 23 54 35 91 53l25 -44c-44 -25 -76 -44 -125 -78c-31 27 -56 47 -105 79z" />
    <glyph glyph-name="ncommaaccent.smcp" horiz-adv-x="607" 
d="M365 0l-166 425l-75 -425h-79l91 520h106l165 -429l76 429h80l-91 -520h-107zM184 -158l19 107h82l-19 -107l-67 -101l-33 22l48 79h-30z" />
    <glyph glyph-name="ntilde.smcp" horiz-adv-x="607" 
d="M365 0l-166 425l-75 -425h-79l91 520h106l165 -429l76 429h80l-91 -520h-107zM416 576c-45 0 -73 38 -105 38c-24 0 -41 -20 -57 -37l-31 31c22 36 53 63 95 63c41 0 69 -38 103 -38c20 0 30 7 47 29l35 -26c-21 -37 -42 -60 -87 -60z" />
    <glyph glyph-name="oacute.smcp" horiz-adv-x="570" 
d="M239 -10c-134 0 -186 56 -186 134c0 11 1 23 3 35l37 211c20 113 80 160 241 160c123 0 183 -64 183 -145c0 -11 -1 -21 -3 -32l-35 -200c-18 -101 -63 -163 -240 -163zM395 149l37 210c2 9 3 18 3 26c0 50 -34 75 -114 75c-103 0 -134 -28 -147 -101l-35 -200
c-2 -11 -2 -23 -2 -27c0 -46 27 -72 114 -72c90 0 133 27 144 89zM313 571l-28 49c51 27 72 39 125 75l29 -54c-44 -30 -71 -44 -126 -70z" />
    <glyph glyph-name="obreve.smcp" horiz-adv-x="570" 
d="M239 -10c-134 0 -186 56 -186 134c0 11 1 23 3 35l37 211c20 113 80 160 241 160c123 0 183 -64 183 -145c0 -11 -1 -21 -3 -32l-35 -200c-18 -101 -63 -163 -240 -163zM395 149l37 210c2 9 3 18 3 26c0 50 -34 75 -114 75c-103 0 -134 -28 -147 -101l-35 -200
c-2 -11 -2 -23 -2 -27c0 -46 27 -72 114 -72c90 0 133 27 144 89zM340 574c-64 0 -104 37 -117 80l46 26c13 -31 35 -51 75 -51s63 18 87 52l40 -29c-22 -44 -62 -78 -131 -78z" />
    <glyph glyph-name="ocircumflex.smcp" horiz-adv-x="570" 
d="M239 -10c-134 0 -186 56 -186 134c0 11 1 23 3 35l37 211c20 113 80 160 241 160c123 0 183 -64 183 -145c0 -11 -1 -21 -3 -32l-35 -200c-18 -101 -63 -163 -240 -163zM395 149l37 210c2 9 3 18 3 26c0 50 -34 75 -114 75c-103 0 -134 -28 -147 -101l-35 -200
c-2 -11 -2 -23 -2 -27c0 -46 27 -72 114 -72c90 0 133 27 144 89zM456 613l-28 -42c-35 17 -54 30 -86 52c-34 -23 -54 -35 -91 -53l-26 44c45 25 76 44 126 78c31 -27 55 -47 105 -79z" />
    <glyph glyph-name="odieresis.smcp" horiz-adv-x="570" 
d="M239 -10c-134 0 -186 56 -186 134c0 11 1 23 3 35l37 211c20 113 80 160 241 160c123 0 183 -64 183 -145c0 -11 -1 -21 -3 -32l-35 -200c-18 -101 -63 -163 -240 -163zM395 149l37 210c2 9 3 18 3 26c0 50 -34 75 -114 75c-103 0 -134 -28 -147 -101l-35 -200
c-2 -11 -2 -23 -2 -27c0 -46 27 -72 114 -72c90 0 133 27 144 89zM391 581l15 78h79l-14 -78h-80zM212 581l14 78h79l-14 -78h-79z" />
    <glyph glyph-name="ograve.smcp" horiz-adv-x="570" 
d="M239 -10c-134 0 -186 56 -186 134c0 11 1 23 3 35l37 211c20 113 80 160 241 160c123 0 183 -64 183 -145c0 -11 -1 -21 -3 -32l-35 -200c-18 -101 -63 -163 -240 -163zM395 149l37 210c2 9 3 18 3 26c0 50 -34 75 -114 75c-103 0 -134 -28 -147 -101l-35 -200
c-2 -11 -2 -23 -2 -27c0 -46 27 -72 114 -72c90 0 133 27 144 89zM382 618l-32 -47c-56 31 -87 52 -119 79l37 48c34 -28 70 -54 114 -80z" />
    <glyph glyph-name="ohungarumlaut.smcp" horiz-adv-x="570" 
d="M239 -10c-134 0 -186 56 -186 134c0 11 1 23 3 35l37 211c20 113 80 160 241 160c123 0 183 -64 183 -145c0 -11 -1 -21 -3 -32l-35 -200c-18 -101 -63 -163 -240 -163zM395 149l37 210c2 9 3 18 3 26c0 50 -34 75 -114 75c-103 0 -134 -28 -147 -101l-35 -200
c-2 -11 -2 -23 -2 -27c0 -46 27 -72 114 -72c90 0 133 27 144 89zM253 562l-35 42c39 31 67 57 103 93l39 -46c-38 -37 -70 -63 -107 -89zM411 562l-35 42c39 31 67 57 103 93l39 -46c-38 -37 -70 -63 -107 -89z" />
    <glyph glyph-name="omacron.smcp" horiz-adv-x="570" 
d="M239 -10c-134 0 -186 56 -186 134c0 11 1 23 3 35l37 211c20 113 80 160 241 160c123 0 183 -64 183 -145c0 -11 -1 -21 -3 -32l-35 -200c-18 -101 -63 -163 -240 -163zM395 149l37 210c2 9 3 18 3 26c0 50 -34 75 -114 75c-103 0 -134 -28 -147 -101l-35 -200
c-2 -11 -2 -23 -2 -27c0 -46 27 -72 114 -72c90 0 133 27 144 89zM220 586l11 59h239l-11 -59h-239z" />
    <glyph glyph-name="oslashacute.smcp" horiz-adv-x="570" 
d="M58 -60l-30 24l57 73c-22 23 -32 53 -32 87c0 11 1 23 3 35l37 211c20 113 80 160 241 160c49 0 89 -10 118 -28l62 78l30 -23l-62 -79c23 -25 35 -58 35 -93c0 -11 -1 -21 -3 -32l-35 -200c-18 -101 -63 -163 -240 -163c-53 0 -94 9 -123 24zM137 132c0 -10 1 -18 3 -26
l266 337c-19 11 -47 17 -85 17c-103 0 -134 -28 -147 -101l-35 -200c-2 -11 -2 -23 -2 -27zM395 149l37 210c2 9 3 18 3 26c0 10 -2 19 -5 28l-265 -337c18 -11 46 -16 86 -16c90 0 133 27 144 89zM302 571l-28 49c51 27 72 39 125 75l29 -54c-44 -30 -71 -44 -126 -70z" />
    <glyph glyph-name="otilde.smcp" horiz-adv-x="570" 
d="M239 -10c-134 0 -186 56 -186 134c0 11 1 23 3 35l37 211c20 113 80 160 241 160c123 0 183 -64 183 -145c0 -11 -1 -21 -3 -32l-35 -200c-18 -101 -63 -163 -240 -163zM395 149l37 210c2 9 3 18 3 26c0 50 -34 75 -114 75c-103 0 -134 -28 -147 -101l-35 -200
c-2 -11 -2 -23 -2 -27c0 -46 27 -72 114 -72c90 0 133 27 144 89zM390 576c-45 0 -73 38 -105 38c-24 0 -41 -20 -57 -37l-31 31c22 36 53 63 95 63c41 0 69 -38 103 -38c20 0 30 7 47 29l35 -26c-21 -37 -42 -60 -87 -60z" />
    <glyph glyph-name="racute.smcp" horiz-adv-x="569" 
d="M307 173h-148l-31 -173h-83l92 520h225c106 0 161 -44 146 -129l-15 -85c-11 -64 -34 -106 -99 -124l93 -182h-89l-90 173h-1zM411 312l13 73c8 46 -7 65 -73 65h-144l-36 -207h142c72 0 90 23 98 69zM309 571l-28 49c51 27 72 39 125 75l29 -54
c-44 -30 -71 -44 -126 -70z" />
    <glyph glyph-name="rcaron.smcp" horiz-adv-x="569" 
d="M307 173h-148l-31 -173h-83l92 520h225c106 0 161 -44 146 -129l-15 -85c-11 -64 -34 -106 -99 -124l93 -182h-89l-90 173h-1zM411 312l13 73c8 46 -7 65 -73 65h-144l-36 -207h142c72 0 90 23 98 69zM224 646l28 42c34 -17 54 -30 86 -52c33 23 54 35 91 53l25 -44
c-44 -25 -76 -44 -125 -78c-31 27 -56 47 -105 79z" />
    <glyph glyph-name="rcommaaccent.smcp" horiz-adv-x="569" 
d="M307 173h-148l-31 -173h-83l92 520h225c106 0 161 -44 146 -129l-15 -85c-11 -64 -34 -106 -99 -124l93 -182h-89l-90 173h-1zM411 312l13 73c8 46 -7 65 -73 65h-144l-36 -207h142c72 0 90 23 98 69zM187 -158l19 107h82l-19 -107l-67 -101l-33 22l48 79h-30z" />
    <glyph glyph-name="sacute.smcp" horiz-adv-x="489" 
d="M199 -10c-55 0 -124 12 -173 33l18 66c51 -17 107 -29 166 -29c84 0 103 13 113 70c11 63 6 78 -100 100c-134 28 -142 77 -126 167c19 106 62 133 205 133c42 0 104 -7 157 -23l-14 -67c-50 12 -103 19 -147 19c-96 0 -109 -12 -120 -73c-10 -56 -8 -68 92 -91
c134 -31 153 -66 136 -164s-45 -141 -207 -141zM283 571l-28 49c51 27 72 39 125 75l29 -54c-44 -30 -71 -44 -126 -70z" />
    <glyph glyph-name="scaron.smcp" horiz-adv-x="489" 
d="M199 -10c-55 0 -124 12 -173 33l18 66c51 -17 107 -29 166 -29c84 0 103 13 113 70c11 63 6 78 -100 100c-134 28 -142 77 -126 167c19 106 62 133 205 133c42 0 104 -7 157 -23l-14 -67c-50 12 -103 19 -147 19c-96 0 -109 -12 -120 -73c-10 -56 -8 -68 92 -91
c134 -31 153 -66 136 -164s-45 -141 -207 -141zM201 646l28 42c34 -17 54 -30 86 -52c33 23 54 35 91 53l25 -44c-44 -25 -76 -44 -125 -78c-31 27 -56 47 -105 79z" />
    <glyph glyph-name="scedilla.smcp" horiz-adv-x="489" 
d="M164 -204c-25 0 -52 6 -74 14l12 40c21 -7 40 -10 62 -10c42 0 62 14 62 40c0 13 -12 23 -37 23c-12 0 -31 -1 -47 -3l-9 15l27 77c-46 4 -96 14 -134 31l18 66c51 -17 107 -29 166 -29c84 0 103 13 113 70c11 63 6 78 -100 100c-134 28 -142 77 -126 167
c19 106 62 133 205 133c42 0 104 -7 157 -23l-14 -67c-50 12 -103 19 -147 19c-96 0 -109 -12 -120 -73c-10 -56 -8 -68 92 -91c134 -31 153 -66 136 -164c-17 -97 -45 -140 -201 -141l-18 -54c11 2 23 3 31 3c37 0 60 -20 60 -54c0 -53 -39 -89 -114 -89z" />
    <glyph glyph-name="scircumflex.smcp" horiz-adv-x="489" 
d="M199 -10c-55 0 -124 12 -173 33l18 66c51 -17 107 -29 166 -29c84 0 103 13 113 70c11 63 6 78 -100 100c-134 28 -142 77 -126 167c19 106 62 133 205 133c42 0 104 -7 157 -23l-14 -67c-50 12 -103 19 -147 19c-96 0 -109 -12 -120 -73c-10 -56 -8 -68 92 -91
c134 -31 153 -66 136 -164s-45 -141 -207 -141zM430 613l-28 -42c-35 17 -54 30 -86 52c-34 -23 -54 -35 -91 -53l-26 44c45 25 76 44 126 78c31 -27 55 -47 105 -79z" />
    <glyph glyph-name="scommaaccent.smcp" horiz-adv-x="489" 
d="M199 -10c-55 0 -124 12 -173 33l18 66c51 -17 107 -29 166 -29c84 0 103 13 113 70c11 63 6 78 -100 100c-134 28 -142 77 -126 167c19 106 62 133 205 133c42 0 104 -7 157 -23l-14 -67c-50 12 -103 19 -147 19c-96 0 -109 -12 -120 -73c-10 -56 -8 -68 92 -91
c134 -31 153 -66 136 -164s-45 -141 -207 -141zM135 -158l19 107h82l-19 -107l-67 -101l-33 22l48 79h-30z" />
    <glyph glyph-name="tbar.smcp" horiz-adv-x="475" 
d="M59 204l9 52h134l34 191h-171l13 73h425l-13 -73h-171l-34 -191h137l-9 -52h-137l-35 -204h-83l35 204h-134z" />
    <glyph glyph-name="tcaron.smcp" horiz-adv-x="475" 
d="M313 447l-78 -447h-83l78 447h-171l13 73h425l-13 -73h-171zM183 646l28 42c34 -17 54 -30 86 -52c33 23 54 35 91 53l25 -44c-44 -25 -76 -44 -125 -78c-31 27 -56 47 -105 79z" />
    <glyph glyph-name="tcommaaccent.smcp" horiz-adv-x="475" 
d="M313 447l-78 -447h-83l78 447h-171l13 73h425l-13 -73h-171zM124 -158l19 107h82l-19 -107l-67 -101l-33 22l48 79h-30z" />
    <glyph glyph-name="thorn.smcp" horiz-adv-x="512" 
d="M45 0l92 520h83l-15 -82h131c95 0 149 -35 149 -103c0 -8 -2 -20 -3 -26l-16 -90c-15 -86 -52 -131 -186 -131h-136l-15 -88h-84zM384 224l14 80c1 6 2 13 2 19c0 32 -19 45 -75 45h-132l-37 -210h130c68 0 90 20 98 66z" />
    <glyph glyph-name="uacute.smcp" horiz-adv-x="587" 
d="M248 -10c-141 0 -197 73 -182 158l66 372h83l-65 -367c-10 -58 12 -90 111 -90c87 0 129 29 141 96l64 361h83l-66 -372c-17 -96 -68 -158 -235 -158zM319 571l-28 49c51 27 72 39 125 75l29 -54c-44 -30 -71 -44 -126 -70z" />
    <glyph glyph-name="ubreve.smcp" horiz-adv-x="587" 
d="M248 -10c-141 0 -197 73 -182 158l66 372h83l-65 -367c-10 -58 12 -90 111 -90c87 0 129 29 141 96l64 361h83l-66 -372c-17 -96 -68 -158 -235 -158zM357 574c-64 0 -104 37 -117 80l46 26c13 -31 35 -51 75 -51s63 18 87 52l40 -29c-22 -44 -62 -78 -131 -78z" />
    <glyph glyph-name="ucircumflex.smcp" horiz-adv-x="587" 
d="M248 -10c-141 0 -197 73 -182 158l66 372h83l-65 -367c-10 -58 12 -90 111 -90c87 0 129 29 141 96l64 361h83l-66 -372c-17 -96 -68 -158 -235 -158zM470 613l-28 -42c-35 17 -54 30 -86 52c-34 -23 -54 -35 -91 -53l-26 44c45 25 76 44 126 78c31 -27 55 -47 105 -79z
" />
    <glyph glyph-name="udieresis.smcp" horiz-adv-x="587" 
d="M248 -10c-141 0 -197 73 -182 158l66 372h83l-65 -367c-10 -58 12 -90 111 -90c87 0 129 29 141 96l64 361h83l-66 -372c-17 -96 -68 -158 -235 -158zM397 581l15 78h79l-14 -78h-80zM218 581l14 78h79l-14 -78h-79z" />
    <glyph glyph-name="ugrave.smcp" horiz-adv-x="587" 
d="M248 -10c-141 0 -197 73 -182 158l66 372h83l-65 -367c-10 -58 12 -90 111 -90c87 0 129 29 141 96l64 361h83l-66 -372c-17 -96 -68 -158 -235 -158zM396 618l-32 -47c-56 31 -87 52 -119 79l37 48c34 -28 70 -54 114 -80z" />
    <glyph glyph-name="uhungarumlaut.smcp" horiz-adv-x="587" 
d="M248 -10c-141 0 -197 73 -182 158l66 372h83l-65 -367c-10 -58 12 -90 111 -90c87 0 129 29 141 96l64 361h83l-66 -372c-17 -96 -68 -158 -235 -158zM256 562l-35 42c39 31 67 57 103 93l39 -46c-38 -37 -70 -63 -107 -89zM414 562l-35 42c39 31 67 57 103 93l39 -46
c-38 -37 -70 -63 -107 -89z" />
    <glyph glyph-name="umacron.smcp" horiz-adv-x="587" 
d="M248 -10c-141 0 -197 73 -182 158l66 372h83l-65 -367c-10 -58 12 -90 111 -90c87 0 129 29 141 96l64 361h83l-66 -372c-17 -96 -68 -158 -235 -158zM234 586l11 59h239l-11 -59h-239z" />
    <glyph glyph-name="uogonek.smcp" horiz-adv-x="587" 
d="M313 -194c-17 -9 -39 -13 -63 -13c-56 0 -91 26 -91 73c0 57 59 96 111 125c-7 -1 -14 -1 -22 -1c-141 0 -197 73 -182 158l66 372h83l-65 -367c-10 -58 12 -90 111 -90c87 0 129 29 141 96l64 361h83l-66 -372c-12 -67 -40 -117 -112 -141c-87 -40 -142 -87 -142 -128
c0 -18 11 -32 41 -32c16 0 27 2 39 6z" />
    <glyph glyph-name="uring.smcp" horiz-adv-x="587" 
d="M248 -10c-141 0 -197 73 -182 158l66 372h83l-65 -367c-10 -58 12 -90 111 -90c87 0 129 29 141 96l64 361h83l-66 -372c-17 -96 -68 -158 -235 -158zM346 555c-37 0 -60 23 -60 56c0 51 30 82 84 82c40 0 61 -24 61 -53c0 -46 -24 -85 -85 -85zM365 659
c-23 0 -39 -16 -39 -43c0 -15 6 -26 25 -26c27 0 39 19 39 44c0 17 -7 25 -25 25z" />
    <glyph glyph-name="utilde.smcp" horiz-adv-x="587" 
d="M414 576c-45 0 -73 38 -105 38c-24 0 -41 -20 -57 -37l-31 31c22 36 53 63 95 63c41 0 69 -38 103 -38c20 0 30 7 47 29l35 -26c-21 -37 -42 -60 -87 -60zM248 -10c-141 0 -197 73 -182 158l66 372h83l-65 -367c-10 -58 12 -90 111 -90c87 0 129 29 141 96l64 361h83
l-66 -372c-17 -96 -68 -158 -235 -158z" />
    <glyph glyph-name="wacute.smcp" horiz-adv-x="789" 
d="M575 0h-110l-37 440l-191 -440h-102l-61 520h75l49 -437l191 437h103l40 -437l201 437h85zM432 571l-28 49c51 27 72 39 125 75l29 -54c-44 -30 -71 -44 -126 -70z" />
    <glyph glyph-name="wcircumflex.smcp" horiz-adv-x="789" 
d="M575 0h-110l-37 440l-191 -440h-102l-61 520h75l49 -437l191 437h103l40 -437l201 437h85zM569 613l-28 -42c-35 17 -54 30 -86 52c-34 -23 -54 -35 -91 -53l-26 44c45 25 76 44 126 78c31 -27 55 -47 105 -79z" />
    <glyph glyph-name="wdieresis.smcp" horiz-adv-x="789" 
d="M575 0h-110l-37 440l-191 -440h-102l-61 520h75l49 -437l191 437h103l40 -437l201 437h85zM505 581l15 78h79l-14 -78h-80zM326 581l14 78h79l-14 -78h-79z" />
    <glyph glyph-name="wgrave.smcp" horiz-adv-x="789" 
d="M575 0h-110l-37 440l-191 -440h-102l-61 520h75l49 -437l191 437h103l40 -437l201 437h85zM484 618l-32 -47c-56 31 -87 52 -119 79l37 48c34 -28 70 -54 114 -80z" />
    <glyph glyph-name="yacute.smcp" horiz-adv-x="491" 
d="M276 146l-26 -146h-83l28 156l-130 364h82l101 -292l191 292h94zM284 571l-28 49c51 27 72 39 125 75l29 -54c-44 -30 -71 -44 -126 -70z" />
    <glyph glyph-name="ycircumflex.smcp" horiz-adv-x="491" 
d="M276 146l-26 -146h-83l28 156l-130 364h82l101 -292l191 292h94zM416 613l-28 -42c-35 17 -54 30 -86 52c-34 -23 -54 -35 -91 -53l-26 44c45 25 76 44 126 78c31 -27 55 -47 105 -79z" />
    <glyph glyph-name="ydieresis.smcp" horiz-adv-x="491" 
d="M276 146l-26 -146h-83l28 156l-130 364h82l101 -292l191 292h94zM355 581l15 78h79l-14 -78h-80zM176 581l14 78h79l-14 -78h-79z" />
    <glyph glyph-name="ygrave.smcp" horiz-adv-x="491" 
d="M276 146l-26 -146h-83l28 156l-130 364h82l101 -292l191 292h94zM342 618l-32 -47c-56 31 -87 52 -119 79l37 48c34 -28 70 -54 114 -80z" />
    <glyph glyph-name="zacute.smcp" horiz-adv-x="520" 
d="M45 0l-2 62l349 392h-285l11 66h371l1 -63l-348 -391h283l-11 -66h-369zM282 571l-28 49c51 27 72 39 125 75l29 -54c-44 -30 -71 -44 -126 -70z" />
    <glyph glyph-name="zcaron.smcp" horiz-adv-x="520" 
d="M45 0l-2 62l349 392h-285l11 66h371l1 -63l-348 -391h283l-11 -66h-369zM203 646l28 42c34 -17 54 -30 86 -52c33 23 54 35 91 53l25 -44c-44 -25 -76 -44 -125 -78c-31 27 -56 47 -105 79z" />
    <glyph glyph-name="zdotaccent.smcp" horiz-adv-x="520" 
d="M45 0l-2 62l349 392h-285l11 66h371l1 -63l-348 -391h283l-11 -66h-369zM269 574l22 124l84 12l-22 -125z" />
    </font>
</defs>
</svg>
