<?xml version="1.0" standalone="no"?>
<!DOCTYPE svg PUBLIC "-//W3C//DTD SVG 1.1//EN" "http://www.w3.org/Graphics/SVG/1.1/DTD/svg11.dtd" >
<svg xmlns="http://www.w3.org/2000/svg" xmlns:xlink="http://www.w3.org/1999/xlink" version="1.1">
<metadata>
Created by FontForge 20170924 at Mon Nov 29 11:53:12 2004
 By www-data
Copyright 2004 Process Type Foundry. All rights reserved.
</metadata>
<defs>
<font id="Klavika-Light" horiz-adv-x="525" >
  <font-face 
    font-family="Klavika Lt"
    font-weight="300"
    font-stretch="normal"
    units-per-em="1000"
    panose-1="2 0 0 0 0 0 0 0 0 0"
    ascent="750"
    descent="-250"
    x-height="487"
    cap-height="666"
    bbox="-15 -251 1152 934"
    underline-thickness="20"
    underline-position="-133"
    stemh="52"
    stemv="58"
    unicode-range="U+0020-FB02"
  />
<missing-glyph horiz-adv-x="666" 
d="M100 0v666h466v-666h-466zM517 616h-340l340 -527v527zM149 576v-527h339z" />
    <glyph glyph-name="fi" unicode="fi" horiz-adv-x="585" 
d="M500 0h-58v437h-258v-437h-58v437h-91v50h91v102c0 80 49 117 126 117c34 0 69 -5 100 -15l-8 -45c-30 6 -61 10 -88 10c-55 0 -72 -21 -72 -74v-95h316v-487zM500 579h-58v107h58v-107z" />
    <glyph glyph-name="fl" unicode="fl" horiz-adv-x="585" 
d="M347 692l-8 -45c-34 7 -64 9 -83 9c-55 0 -72 -21 -72 -74v-95h145l-6 -50h-139v-437h-58v437h-91v50h91v102c0 80 49 117 126 117c33 0 66 -5 95 -14zM500 0h-58v686l58 8v-694z" />
    <glyph glyph-name="f_f" unicode="ff" horiz-adv-x="714" 
d="M709 692l-8 -45c-32 6 -61 9 -88 9c-55 0 -72 -21 -72 -74v-95h150l-6 -49h-144v-438h-58v438h-299v-438h-58v438h-91v49h91v102c0 80 49 117 126 117c28 0 71 -5 100 -14l-8 -45c-32 6 -61 9 -88 9c-55 0 -72 -21 -72 -74v-95h299v102c0 80 49 117 126 117
c28 0 71 -5 100 -14z" />
    <glyph glyph-name="f_f_i" unicode="ffi" horiz-adv-x="942" 
d="M541 438v-438h-58v438h-299v-438h-58v438h-91v49h91v102c0 80 49 117 126 117c28 0 71 -5 100 -14l-8 -45c-32 6 -61 9 -88 9c-55 0 -72 -21 -72 -74v-95h299v102c0 80 49 117 126 117c28 0 71 -5 100 -14l-8 -45c-32 6 -61 9 -88 9c-55 0 -72 -21 -72 -74v-95h316v-487
h-58v438h-258zM857 579h-58v107h58v-107z" />
    <glyph glyph-name="f_j" unicode="fj" horiz-adv-x="580" 
d="M184 487h316v-522c0 -73 -14 -82 -113 -172l-38 42c83 74 93 80 93 139v463h-258v-437h-58v437h-91v50h91v102c0 80 49 117 126 117c34 0 69 -5 100 -15l-8 -45c-30 6 -61 10 -88 10c-55 0 -72 -21 -72 -74v-95zM500 579h-58v107h58v-107z" />
    <glyph glyph-name="f_f_j" unicode="ffj" horiz-adv-x="937" 
d="M541 487h316v-522c0 -73 -14 -82 -113 -172l-38 42c83 74 93 80 93 139v464h-258v-438h-58v438h-299v-438h-58v438h-91v49h91v102c0 80 49 117 126 117c28 0 71 -5 100 -14l-8 -45c-32 6 -61 9 -88 9c-55 0 -72 -21 -72 -74v-95h299v102c0 80 49 117 126 117
c34 0 69 -5 100 -15l-8 -45c-30 6 -61 10 -88 10c-55 0 -72 -21 -72 -74v-95zM857 579h-58v107h58v-107z" />
    <glyph glyph-name="f_f_l" unicode="ffl" horiz-adv-x="942" 
d="M483 487v102c0 80 49 117 126 117c33 0 66 -5 95 -14l-8 -45c-34 7 -64 9 -83 9c-55 0 -72 -21 -72 -74v-95h145l-6 -49h-139v-438h-58v438h-299v-438h-58v438h-91v49h91v102c0 80 49 117 126 117c28 0 71 -5 100 -14l-8 -45c-32 6 -61 9 -88 9c-55 0 -72 -21 -72 -74
v-95h299zM857 0h-58v686l58 8v-694z" />
    <glyph glyph-name=".notdef" horiz-adv-x="666" 
d="M100 0v666h466v-666h-466zM517 616h-340l340 -527v527zM149 576v-527h339z" />
    <glyph glyph-name="space" unicode=" " horiz-adv-x="220" 
 />
    <glyph glyph-name="exclam" unicode="!" horiz-adv-x="252" 
d="M143 171h-34l-12 168v347h58v-347zM95 0v86h62v-86h-62z" />
    <glyph glyph-name="quotedbl" unicode="&#x22;" horiz-adv-x="354" 
d="M126 442h-51v244h51v-244zM279 442h-51v244h51v-244z" />
    <glyph glyph-name="numbersign" unicode="#" horiz-adv-x="719" 
d="M633 179h-136l-9 -179h-53l9 179h-195l-9 -179h-53l9 179h-136l3 49h136l10 205h-136l3 49h136l9 164h53l-9 -164h195l9 164h53l-9 -164h136l-3 -49h-136l-10 -205h136zM262 433l-10 -205h195l10 205h-195z" />
    <glyph glyph-name="dollar" unicode="$" horiz-adv-x="511" 
d="M279 -109h-56v100c-51 2 -104 10 -153 29l10 47c60 -18 121 -25 170 -25c123 0 133 30 133 115c0 89 -1 100 -140 145c-166 54 -170 73 -170 188c0 112 31 160 170 165v100h56v-100c48 -2 97 -7 135 -17l-7 -49c-56 10 -106 15 -158 15c-116 0 -138 -10 -138 -116
c0 -91 3 -94 100 -127c200 -68 210 -83 210 -203c0 -118 -34 -162 -162 -167v-100z" />
    <glyph glyph-name="percent" unicode="%" horiz-adv-x="843" 
d="M579 658l-273 -668l-44 17l273 669zM340 544v-100c0 -82 -42 -132 -142 -132s-143 50 -143 132v100c0 82 43 132 143 132s142 -50 142 -132zM105 545v-102c0 -55 23 -87 93 -87s92 32 92 87v102c0 55 -22 87 -92 87s-93 -32 -93 -87zM783 222v-100
c0 -82 -42 -132 -142 -132s-143 50 -143 132v100c0 82 43 132 143 132s142 -50 142 -132zM548 223v-102c0 -55 23 -87 93 -87s92 32 92 87v102c0 55 -22 87 -92 87s-93 -32 -93 -87z" />
    <glyph glyph-name="ampersand" unicode="&#x26;" horiz-adv-x="617" 
d="M577 309h-98v-292c-58 -17 -124 -27 -186 -27c-151 0 -208 46 -208 157v64c0 59 34 114 92 126c-58 21 -76 62 -76 115v81c0 95 61 143 187 143c51 0 128 -10 178 -23l-7 -49c-54 11 -120 20 -173 20c-89 0 -127 -26 -127 -91v-86c0 -52 33 -86 103 -86h315v-52zM291 41
c45 0 90 5 132 15v253h-150c-77 0 -130 -28 -130 -104v-55c0 -80 33 -109 148 -109z" />
    <glyph glyph-name="quotesingle" unicode="'" horiz-adv-x="201" 
d="M126 442h-51v244h51v-244z" />
    <glyph glyph-name="parenleft" unicode="(" horiz-adv-x="301" 
d="M271 -125l-42 -29c-102 146 -154 291 -154 458s52 312 154 458l42 -29c-108 -171 -138 -285 -138 -429s30 -258 138 -429z" />
    <glyph glyph-name="parenright" unicode=")" horiz-adv-x="301" 
d="M72 -154l-42 29c108 171 138 285 138 429s-30 258 -138 429l42 29c102 -146 154 -291 154 -458s-52 -312 -154 -458z" />
    <glyph glyph-name="asterisk" unicode="*" horiz-adv-x="477" 
d="M122 389l81 125h-148v37h150l-82 126l31 20l84 -130l84 130l31 -20l-82 -126h151v-37h-150l82 -125l-31 -20l-85 131l-85 -131z" />
    <glyph glyph-name="plus" unicode="+" horiz-adv-x="536" 
d="M65 217v52h175v178h56v-178h175v-52h-175v-178h-56v178h-175z" />
    <glyph glyph-name="comma" unicode="," horiz-adv-x="241" 
d="M89 0v86h62v-86l-48 -108l-28 12l36 96h-22z" />
    <glyph glyph-name="hyphen" unicode="-" horiz-adv-x="362" 
d="M65 256v49h232v-49h-232z" />
    <glyph glyph-name="period" unicode="." horiz-adv-x="242" 
d="M90 0v86h62v-86h-62z" />
    <glyph glyph-name="slash" unicode="/" horiz-adv-x="440" 
d="M370 676l-247 -793h-58l246 793h59z" />
    <glyph glyph-name="zero" unicode="0" horiz-adv-x="560" 
d="M480 485v-324c0 -100 -53 -171 -200 -171s-200 71 -200 171v324c0 100 53 171 200 171s200 -71 200 -171zM138 481v-316c0 -82 33 -123 142 -123s142 41 142 123v316c0 82 -33 123 -142 123s-142 -41 -142 -123z" />
    <glyph glyph-name="one" unicode="1" horiz-adv-x="326" 
d="M38 501l-28 48l169 97h52v-646h-58v577z" />
    <glyph glyph-name="two" unicode="2" horiz-adv-x="484" 
d="M53 0v52c86 107 110 134 183 229c78 101 110 144 110 201v16c0 76 -15 106 -135 106c-47 0 -106 -12 -141 -23l-11 50c35 12 100 25 158 25c155 0 187 -57 187 -156v-15c0 -72 -27 -110 -122 -237c-63 -84 -87 -111 -155 -196h282v-52h-356z" />
    <glyph glyph-name="three" unicode="3" horiz-adv-x="491" 
d="M55 10l9 50c47 -11 99 -18 144 -18c101 0 145 20 145 99v64c0 64 -41 94 -113 94h-134v52h128c74 0 107 35 107 91v71c0 67 -33 91 -120 91c-45 0 -103 -7 -145 -15l-8 50c41 9 101 17 151 17c129 0 180 -48 180 -139v-70c0 -62 -18 -97 -80 -121c55 -12 92 -49 92 -117
v-72c0 -106 -68 -147 -205 -147c-42 0 -101 6 -151 20z" />
    <glyph glyph-name="four" unicode="4" horiz-adv-x="540" 
d="M500 174h-99v-174h-58v174h-313v62l293 410h78v-422h99v-50zM86 224h257v362z" />
    <glyph glyph-name="five" unicode="5" horiz-adv-x="495" 
d="M90 309v337h330v-52h-272v-233c42 -1 62 -1 115 -2c121 -2 162 -63 162 -153v-55c0 -103 -47 -161 -197 -161c-52 0 -114 5 -163 22l10 48c49 -13 105 -18 153 -18c106 0 139 29 139 113v43c0 77 -24 107 -115 109c-55 1 -113 1 -162 2z" />
    <glyph glyph-name="six" unicode="6" horiz-adv-x="518" 
d="M138 430v-96c32 13 97 26 143 26c133 0 172 -56 172 -156v-55c0 -100 -47 -159 -184 -159s-189 59 -189 159v282c0 160 53 225 244 225c27 0 80 -4 114 -14l-7 -49c-26 6 -67 11 -97 11c-167 0 -196 -42 -196 -174zM279 308c-48 0 -105 -15 -141 -30v-131
c0 -82 50 -105 131 -105c94 0 126 29 126 105v60c0 70 -22 101 -116 101z" />
    <glyph glyph-name="seven" unicode="7" horiz-adv-x="427" 
d="M30 594v52h374v-49l-280 -597h-59l280 594h-315z" />
    <glyph glyph-name="eight" unicode="8" horiz-adv-x="554" 
d="M462 487c0 -69 -24 -115 -118 -157c102 -45 135 -90 135 -166v-20c0 -107 -60 -154 -202 -154s-202 47 -202 154v20c0 76 33 121 133 166c-92 42 -116 96 -116 157v13c0 87 43 156 185 156s185 -69 185 -156v-13zM421 167c0 67 -33 89 -144 135
c-111 -44 -144 -68 -144 -135v-20c0 -79 38 -105 144 -105s144 26 144 105v20zM150 483c0 -60 30 -85 127 -127c97 42 127 65 127 127v25c0 60 -30 96 -127 96s-127 -35 -127 -96v-25z" />
    <glyph glyph-name="nine" unicode="9" horiz-adv-x="513" 
d="M375 216v96c-32 -13 -97 -26 -143 -26c-133 0 -172 56 -172 156v55c0 100 50 159 184 159c137 0 189 -56 189 -159v-282c0 -160 -50 -225 -244 -225c-27 0 -80 5 -114 15l7 49c26 -6 67 -12 97 -12c172 0 196 42 196 174zM234 338c48 0 105 15 141 30v131
c0 82 -50 105 -131 105c-94 0 -126 -29 -126 -105v-60c0 -70 22 -101 116 -101z" />
    <glyph glyph-name="colon" unicode=":" horiz-adv-x="242" 
d="M90 0v86h62v-86h-62zM90 320v86h62v-86h-62z" />
    <glyph glyph-name="semicolon" unicode=";" horiz-adv-x="241" 
d="M89 0v86h62v-86l-48 -108l-28 12l36 96h-22zM89 320v86h62v-86h-62z" />
    <glyph glyph-name="less" unicode="&#x3c;" horiz-adv-x="550" 
d="M50 223v42l398 232l25 -42l-365 -211l367 -212l-25 -42z" />
    <glyph glyph-name="equal" unicode="=" horiz-adv-x="509" 
d="M80 309v47h349v-47h-349zM80 137v47h349v-47h-349z" />
    <glyph glyph-name="greater" unicode="&#x3e;" horiz-adv-x="550" 
d="M500 265v-42l-400 -233l-25 42l367 212l-365 211l25 42z" />
    <glyph glyph-name="question" unicode="?" horiz-adv-x="458" 
d="M188 231l-34 44c33 26 61 47 109 87c64 54 67 63 67 156c0 100 -11 126 -126 126c-37 0 -87 -5 -134 -15l-10 50c46 11 100 17 146 17c155 0 182 -52 182 -176c0 -116 -8 -137 -96 -206c-42 -33 -70 -56 -104 -83zM154 0v96h62v-96h-62z" />
    <glyph glyph-name="at" unicode="@" horiz-adv-x="751" 
d="M427 279l28 159c-26 7 -50 11 -71 11c-39 0 -54 -13 -60 -47c-6 -39 -14 -76 -20 -115c-5 -30 3 -38 36 -38c25 0 64 14 87 30zM258 290l19 112c11 63 38 90 113 90c31 0 86 -10 118 -25l-37 -212c10 -5 24 -9 40 -9c91 0 125 69 125 153c0 147 -94 231 -251 231
c-149 0 -269 -118 -269 -297c0 -175 97 -296 304 -296c67 0 130 15 194 43l15 -40c-62 -34 -133 -50 -209 -50c-221 0 -355 135 -355 343c0 202 139 343 320 343c197 0 301 -117 301 -275c0 -116 -58 -198 -175 -198c-33 0 -62 12 -79 31c-28 -14 -60 -28 -104 -28
c-58 0 -78 36 -70 84z" />
    <glyph glyph-name="A" unicode="A" horiz-adv-x="621" 
d="M528 0l-63 175h-310l-62 -175h-58l232 666h87l232 -666h-58zM310 632l-137 -406h274z" />
    <glyph glyph-name="B" unicode="B" horiz-adv-x="559" 
d="M351 0h-261v666h250c90 0 143 -43 143 -131v-80c0 -53 -22 -88 -76 -108c52 -7 97 -50 97 -124v-87c0 -92 -67 -136 -153 -136zM445 136v85c0 56 -33 94 -110 94h-186v-263h203c63 0 93 31 93 84zM424 458v85c0 46 -26 71 -83 71h-192v-247h172c73 0 103 38 103 91z" />
    <glyph glyph-name="C" unicode="C" horiz-adv-x="511" 
d="M134 482v-298c0 -104 46 -141 167 -141c43 0 103 5 148 13l7 -51c-50 -10 -112 -15 -160 -15c-161 0 -221 69 -221 193v300c0 124 60 193 221 193c48 0 110 -5 160 -15l-7 -51c-45 8 -105 13 -148 13c-121 0 -167 -37 -167 -141z" />
    <glyph glyph-name="D" unicode="D" horiz-adv-x="590" 
d="M90 666h220c162 0 208 -84 208 -197v-272c0 -113 -46 -197 -208 -197h-220v666zM149 613v-560h162c112 0 148 46 148 141v278c0 95 -36 141 -148 141h-162z" />
    <glyph glyph-name="E" unicode="E" horiz-adv-x="536" 
d="M90 0v666h375v-53h-316v-247h294v-53h-294v-260h317v-53h-376z" />
    <glyph glyph-name="F" unicode="F" horiz-adv-x="511" 
d="M149 0h-59v666h379v-53h-320v-257h298v-53h-298v-303z" />
    <glyph glyph-name="G" unicode="G" horiz-adv-x="571" 
d="M134 481v-296c0 -98 33 -142 158 -142c41 0 99 5 140 15v236h59v-276c-62 -18 -138 -28 -203 -28c-162 0 -213 70 -213 194v298c0 125 59 194 221 194c57 0 133 -7 183 -18l-6 -51c-56 9 -119 16 -176 16c-124 0 -163 -40 -163 -142z" />
    <glyph glyph-name="H" unicode="H" horiz-adv-x="620" 
d="M530 0h-59v316h-322v-316h-59v666h59v-297h322v297h59v-666z" />
    <glyph glyph-name="I" unicode="I" horiz-adv-x="249" 
d="M154 666v-666h-59v666h59z" />
    <glyph glyph-name="J" unicode="J" horiz-adv-x="234" 
d="M90 666h59v-660c0 -83 -6 -88 -120 -199l-39 42c98 96 100 100 100 151v666z" />
    <glyph glyph-name="K" unicode="K" horiz-adv-x="569" 
d="M149 666v-666h-59v666h59zM510 666l-267 -327l286 -339h-74l-283 339l265 327h73z" />
    <glyph glyph-name="L" unicode="L" horiz-adv-x="494" 
d="M149 666v-613h300v-53h-359v666h59z" />
    <glyph glyph-name="M" unicode="M" horiz-adv-x="795" 
d="M651 0l-14 607l-194 -521h-91l-194 521l-14 -607h-59l20 666h86l207 -544l206 544h86l20 -666h-59z" />
    <glyph glyph-name="N" unicode="N" horiz-adv-x="638" 
d="M462 0l-316 608v-608h-56v666h86l316 -609v609h56v-666h-86z" />
    <glyph glyph-name="O" unicode="O" horiz-adv-x="616" 
d="M541 188c0 -114 -62 -198 -233 -198s-233 84 -233 198v290c0 114 62 198 233 198s233 -84 233 -198v-290zM308 43c128 0 174 52 174 147v286c0 95 -46 147 -174 147s-174 -52 -174 -147v-286c0 -95 46 -147 174 -147z" />
    <glyph glyph-name="P" unicode="P" horiz-adv-x="544" 
d="M90 0v666h226c134 0 183 -61 183 -154v-104c0 -93 -49 -154 -183 -154h-167v-254h-59zM440 512c0 73 -39 101 -123 101h-168v-306h168c84 0 123 28 123 101v104z" />
    <glyph glyph-name="Q" unicode="Q" horiz-adv-x="616" 
d="M425 -139l-54 -23l-66 152c-169 1 -230 84 -230 198v290c0 114 62 198 233 198s233 -84 233 -198v-290c0 -100 -48 -176 -174 -194zM308 43c128 0 174 52 174 147v286c0 95 -46 147 -174 147s-174 -52 -174 -147v-286c0 -95 46 -147 174 -147z" />
    <glyph glyph-name="R" unicode="R" horiz-adv-x="619" 
d="M512 0l-173 256h-13h-177v-256h-59v666h236c134 0 183 -61 183 -154v-102c0 -73 -30 -127 -108 -146l178 -264h-67zM450 512c0 73 -39 101 -123 101h-178v-304h178c84 0 123 28 123 101v102z" />
    <glyph glyph-name="S" unicode="S" horiz-adv-x="544" 
d="M469 165c0 -109 -37 -175 -206 -175c-58 0 -131 10 -188 32l11 48c60 -18 121 -27 179 -27c114 0 145 34 145 119c0 103 -1 114 -149 148c-161 37 -179 66 -179 200c0 109 40 166 207 166c58 0 127 -10 172 -23l-7 -50c-49 11 -111 20 -163 20c-132 0 -150 -32 -150 -115
c0 -108 3 -113 143 -148c175 -44 185 -69 185 -195z" />
    <glyph glyph-name="T" unicode="T" horiz-adv-x="519" 
d="M230 0v613h-205v53h469v-53h-205v-613h-59z" />
    <glyph glyph-name="U" unicode="U" horiz-adv-x="630" 
d="M486 666h59v-477c0 -113 -68 -199 -230 -199s-230 86 -230 199v477h59v-477c0 -93 59 -146 171 -146s171 53 171 146v477z" />
    <glyph glyph-name="V" unicode="V" horiz-adv-x="590" 
d="M295 53l217 613h58l-235 -666h-80l-235 666h58z" />
    <glyph glyph-name="W" unicode="W" horiz-adv-x="890" 
d="M593 0l-148 624l-148 -624h-92l-180 666h57l167 -621l149 621h94l149 -621l167 621h57l-180 -666h-92z" />
    <glyph glyph-name="X" unicode="X" horiz-adv-x="580" 
d="M35 0l223 338l-216 328h64l184 -281l184 281h64l-216 -328l223 -338h-64l-191 291l-191 -291h-64z" />
    <glyph glyph-name="Y" unicode="Y" horiz-adv-x="543" 
d="M76 666l195 -402l196 402h61l-227 -461v-205h-59v205l-227 461h61z" />
    <glyph glyph-name="Z" unicode="Z" horiz-adv-x="576" 
d="M499 613l-364 -560h371v-53h-436v53l363 560h-353v53h419v-53z" />
    <glyph glyph-name="bracketleft" unicode="[" horiz-adv-x="311" 
d="M281 -126h-181v916h181v-54h-123v-808h123v-54z" />
    <glyph glyph-name="backslash" unicode="\" horiz-adv-x="440" 
d="M317 -117l-247 793h59l246 -793h-58z" />
    <glyph glyph-name="bracketright" unicode="]" horiz-adv-x="311" 
d="M211 -126h-181v54h123v808h-123v54h181v-916z" />
    <glyph glyph-name="asciicircum" unicode="^" horiz-adv-x="454" 
d="M97 381l-47 26l145 279h64l145 -279l-47 -26l-130 251z" />
    <glyph glyph-name="underscore" unicode="_" horiz-adv-x="434" 
d="M430 -36h-426v26h426v-26z" />
    <glyph glyph-name="grave" unicode="`" horiz-adv-x="310" 
d="M235 587l-27 -41c-41 23 -90 52 -133 83l29 44c44 -31 91 -61 131 -86z" />
    <glyph glyph-name="a" unicode="a" horiz-adv-x="485" 
d="M410 356v-356h-50l-4 38c-47 -29 -101 -48 -165 -48c-86 0 -126 49 -126 136c0 103 47 135 143 135h144v95c0 67 -35 89 -115 89c-48 0 -99 -7 -144 -16l-9 49c39 11 100 19 150 19c126 0 176 -50 176 -141zM352 92v117h-142c-67 0 -87 -20 -87 -84c0 -57 12 -83 80 -83
c48 0 105 19 149 50z" />
    <glyph glyph-name="b" unicode="b" horiz-adv-x="508" 
d="M443 355v-193c0 -109 -48 -172 -195 -172c-42 0 -118 7 -163 18v678l58 8v-234c40 21 94 37 160 37c98 0 140 -56 140 -142zM143 399v-346c38 -7 77 -10 112 -10c105 0 130 44 130 117v196c0 58 -26 85 -90 85c-59 0 -106 -16 -152 -42z" />
    <glyph glyph-name="c" unicode="c" horiz-adv-x="400" 
d="M113 331v-175c0 -87 35 -114 126 -114c29 0 63 3 104 10l7 -48c-34 -9 -78 -14 -111 -14c-137 0 -184 63 -184 168v171c0 105 47 168 184 168c33 0 77 -5 111 -14l-7 -48c-41 7 -75 10 -104 10c-91 0 -126 -27 -126 -114z" />
    <glyph glyph-name="d" unicode="d" horiz-adv-x="513" 
d="M70 125v222c0 89 40 150 150 150c51 0 94 -5 150 -16v205l58 8v-694h-53l-3 46c-49 -37 -110 -56 -164 -56c-95 0 -138 47 -138 135zM370 104v324c-53 11 -105 17 -152 17c-64 0 -90 -32 -90 -98v-222c0 -56 18 -83 84 -83c60 0 112 25 158 62z" />
    <glyph glyph-name="e" unicode="e" horiz-adv-x="479" 
d="M118 165c0 -87 30 -124 127 -124c50 0 106 10 154 23l10 -47c-45 -16 -109 -27 -168 -27c-137 0 -181 71 -181 177v153c0 100 45 177 182 177s177 -77 177 -177v-94h-301v-61zM118 322v-44h244v44c0 82 -29 125 -120 125s-124 -43 -124 -125z" />
    <glyph glyph-name="f" unicode="f" horiz-adv-x="357" 
d="M352 692l-8 -45c-32 6 -61 9 -88 9c-55 0 -72 -21 -72 -74v-95h150l-6 -50h-144v-437h-58v437h-91v50h91v102c0 80 49 117 126 117c28 0 71 -5 100 -14z" />
    <glyph glyph-name="g" unicode="g" horiz-adv-x="513" 
d="M439 320c0 -110 -59 -171 -187 -171c-25 0 -45 2 -65 6c-27 -22 -38 -41 -38 -64c0 -19 11 -32 44 -35c61 -5 75 -6 140 -11c89 -7 121 -48 121 -116c0 -101 -50 -136 -208 -136c-45 0 -119 9 -171 24l9 46c48 -11 112 -20 164 -20c132 0 149 27 149 83
c0 48 -20 67 -78 71c-62 4 -67 4 -132 9c-72 6 -96 43 -96 86c0 26 11 56 46 82c-49 28 -72 77 -72 146v6c0 110 49 171 187 171c33 0 59 -3 82 -10h134v-42l-61 -5c22 -28 32 -67 32 -114v-6zM383 328c0 88 -34 119 -131 119s-131 -30 -131 -119v-10
c0 -92 42 -119 131 -119s131 31 131 119v10z" />
    <glyph glyph-name="h" unicode="h" horiz-adv-x="521" 
d="M441 0h-58v394c0 36 -19 49 -53 49c-40 0 -126 -24 -187 -56v-387h-58v686l58 8v-250c52 25 137 53 195 53c76 0 103 -43 103 -110v-387z" />
    <glyph glyph-name="i" unicode="i" horiz-adv-x="228" 
d="M143 0h-58v487h58v-487zM143 579h-58v107h58v-107z" />
    <glyph glyph-name="j" unicode="j" horiz-adv-x="223" 
d="M85 487h58v-522c0 -73 -14 -82 -113 -172l-38 42c83 74 93 80 93 139v513zM143 579h-58v107h58v-107z" />
    <glyph glyph-name="k" unicode="k" horiz-adv-x="471" 
d="M143 0h-58v686l58 8v-694zM361 487h72l-194 -240l202 -247h-74l-198 247z" />
    <glyph glyph-name="l" unicode="l" horiz-adv-x="228" 
d="M143 0h-58v686l58 8v-694z" />
    <glyph glyph-name="m" unicode="m" horiz-adv-x="819" 
d="M739 0h-58v394c0 36 -19 49 -53 49c-46 0 -126 -24 -187 -56v-387h-58v394c0 36 -19 49 -53 49c-40 0 -126 -24 -187 -56v-387h-58v487h51l4 -44c52 25 139 54 198 54c52 0 81 -20 94 -54c56 26 145 54 204 54c76 0 103 -43 103 -110v-387z" />
    <glyph glyph-name="n" unicode="n" horiz-adv-x="521" 
d="M441 0h-58v394c0 36 -19 49 -53 49c-40 0 -126 -24 -187 -56v-387h-58v487h51l4 -44c52 25 139 54 198 54c76 0 103 -43 103 -110v-387z" />
    <glyph glyph-name="o" unicode="o" horiz-adv-x="498" 
d="M438 167c0 -100 -52 -177 -189 -177s-189 77 -189 177v153c0 100 52 177 189 177s189 -77 189 -177v-153zM380 165v157c0 82 -40 123 -131 123s-131 -41 -131 -123v-157c0 -82 40 -123 131 -123s131 41 131 123z" />
    <glyph glyph-name="p" unicode="p" horiz-adv-x="511" 
d="M443 362v-222c0 -89 -40 -150 -150 -150c-51 0 -94 5 -150 16v-203l-58 -8v692h53l3 -46c49 37 110 56 164 56c95 0 138 -47 138 -135zM143 383v-324c53 -11 105 -17 152 -17c64 0 90 32 90 98v222c0 56 -18 83 -84 83c-60 0 -112 -25 -158 -62z" />
    <glyph glyph-name="q" unicode="q" horiz-adv-x="508" 
d="M65 132v193c0 109 48 172 195 172c42 0 118 -7 163 -18v-676l-58 -8v232c-40 -21 -94 -37 -160 -37c-98 0 -140 56 -140 142zM365 88v346c-38 7 -77 10 -112 10c-105 0 -130 -44 -130 -117v-196c0 -58 26 -85 90 -85c59 0 106 16 152 42z" />
    <glyph glyph-name="r" unicode="r" horiz-adv-x="312" 
d="M290 497l7 -57c-51 -22 -107 -59 -154 -90v-350h-58v487h52l3 -74c52 34 104 67 150 84z" />
    <glyph glyph-name="s" unicode="s" horiz-adv-x="435" 
d="M375 123c0 -88 -32 -133 -162 -133c-49 0 -107 10 -143 25l10 47c42 -13 93 -20 129 -20c90 0 108 17 108 79c0 70 -2 77 -113 103c-122 29 -132 59 -132 148c0 81 39 125 159 125c45 0 100 -6 138 -17l-6 -49c-39 8 -96 14 -136 14c-85 0 -97 -22 -97 -75
c0 -67 4 -74 94 -97c143 -36 151 -59 151 -150z" />
    <glyph glyph-name="t" unicode="t" horiz-adv-x="371" 
d="M325 54l11 -45c-28 -11 -67 -19 -102 -19c-77 0 -110 28 -110 105v342h-94v50h94v115l58 8v-123h149l-6 -50h-143v-336c0 -43 6 -61 56 -61c27 0 58 5 87 14z" />
    <glyph glyph-name="u" unicode="u" horiz-adv-x="521" 
d="M80 487h58v-394c0 -36 19 -49 53 -49c40 0 126 24 187 56v387h58v-487h-51l-4 44c-52 -25 -139 -54 -198 -54c-76 0 -103 43 -103 110v387z" />
    <glyph glyph-name="v" unicode="v" horiz-adv-x="449" 
d="M434 487l-165 -487h-89l-165 487h59l150 -446l151 446h59z" />
    <glyph glyph-name="w" unicode="w" horiz-adv-x="702" 
d="M223 0h-87l-111 487h55l100 -448l132 448h78l131 -448l101 448h55l-111 -487h-87l-128 445z" />
    <glyph glyph-name="x" unicode="x" horiz-adv-x="441" 
d="M88 0h-63l164 245l-161 242h62l130 -195l131 195h62l-162 -242l165 -245h-63l-133 199z" />
    <glyph glyph-name="y" unicode="y" horiz-adv-x="444" 
d="M434 487l-165 -487l-72 -197h-57l73 197h-33l-165 487h59l150 -446l151 446h59z" />
    <glyph glyph-name="z" unicode="z" horiz-adv-x="437" 
d="M62 440l1 47h316l-1 -47l-262 -393h271v-47h-332v47l263 393h-256z" />
    <glyph glyph-name="braceleft" unicode="{" horiz-adv-x="309" 
d="M60 350h16c32 0 44 12 44 41v300c0 64 32 99 100 99h69v-52h-73c-25 0 -38 -12 -38 -40v-304c0 -35 -13 -69 -63 -70c50 -2 63 -35 63 -70v-304c0 -28 13 -40 38 -40h73v-52h-69c-68 0 -100 35 -100 99v300c0 29 -12 41 -44 41h-16v52z" />
    <glyph glyph-name="bar" unicode="|" horiz-adv-x="249" 
d="M144 790v-1000h-39v1000h39z" />
    <glyph glyph-name="braceright" unicode="}" horiz-adv-x="309" 
d="M233 350h16v-52h-16c-32 0 -44 -12 -44 -41v-300c0 -64 -32 -99 -100 -99h-69v52h73c25 0 38 12 38 40v304c0 35 13 68 63 70c-50 1 -63 35 -63 70v304c0 28 -13 40 -38 40h-73v52h69c68 0 100 -35 100 -99v-300c0 -29 12 -41 44 -41z" />
    <glyph glyph-name="asciitilde" unicode="~" horiz-adv-x="495" 
d="M414 342l41 -18c-19 -56 -50 -114 -121 -114c-74 0 -108 78 -163 78c-40 0 -57 -30 -79 -83l-42 19c26 67 62 113 123 113c74 0 107 -80 163 -80c45 0 61 42 78 85z" />
    <glyph glyph-name="nbspace" unicode="&#xa0;" horiz-adv-x="220" 
 />
    <glyph glyph-name="exclamdown" unicode="&#xa1;" horiz-adv-x="252" 
d="M109 316h34l12 -168v-345h-58v345zM95 401v86h62v-86h-62z" />
    <glyph glyph-name="cent" unicode="&#xa2;" horiz-adv-x="420" 
d="M213 -10v91c-114 9 -153 70 -153 167v171c0 96 39 158 153 167v91h56v-91c28 -2 60 -6 86 -13l-7 -48c-41 7 -75 10 -104 10c-91 0 -126 -27 -126 -114v-175c0 -87 35 -114 126 -114c29 0 63 3 104 10l7 -48c-26 -7 -58 -12 -86 -14v-90h-56z" />
    <glyph glyph-name="sterling" unicode="&#xa3;" horiz-adv-x="545" 
d="M80 307v50h93c-30 47 -49 102 -49 153c0 100 46 146 182 146c46 0 107 -9 146 -20l-9 -50c-37 10 -94 18 -135 18c-101 0 -126 -20 -126 -96c0 -52 22 -101 54 -151h199l-4 -50h-174c7 -14 11 -35 11 -58c0 -63 -27 -125 -95 -197h297v-52h-374v52c65 53 114 128 114 196
c0 21 -5 42 -13 59h-117z" />
    <glyph glyph-name="currency" unicode="&#xa4;" horiz-adv-x="540" 
d="M465 547l-63 -63c14 -21 20 -48 20 -77v-144c0 -30 -6 -56 -20 -77l63 -63l-38 -38l-66 66c-23 -12 -53 -18 -91 -18c-39 0 -69 6 -92 17l-65 -65l-38 38l62 62c-14 21 -20 48 -20 78v144c0 30 6 56 20 77l-62 63l38 38l65 -66c23 12 53 18 92 18c38 0 68 -7 91 -18
l66 66zM171 394v-118c0 -62 15 -93 99 -93c83 0 98 31 98 93v118c0 62 -15 93 -98 93c-84 0 -99 -31 -99 -93z" />
    <glyph glyph-name="yen" unicode="&#xa5;" horiz-adv-x="543" 
d="M67 309v47h101l-143 290h61l185 -382l186 382h61l-143 -290h101v-47h-124l-51 -104v-21h175v-45h-175v-139h-59v139h-175v45h175v21l-51 104h-124z" />
    <glyph glyph-name="brokenbar" unicode="&#xa6;" horiz-adv-x="249" 
d="M144 790v-417h-39v417h39zM144 -210h-39v417h39v-417z" />
    <glyph glyph-name="section" unicode="&#xa7;" horiz-adv-x="560" 
d="M256 16l-52 -16c-73 214 -134 415 -134 566c0 80 42 110 126 110c41 0 105 -10 147 -24l-9 -45c-47 11 -107 19 -134 19c-62 0 -72 -14 -72 -64c0 -146 64 -347 128 -546zM309 474l52 16c73 -214 134 -415 134 -566c0 -80 -42 -110 -126 -110c-41 0 -105 10 -147 24l9 45
c47 -11 107 -19 134 -19c62 0 72 14 72 64c0 146 -64 347 -128 546z" />
    <glyph glyph-name="dieresis" unicode="&#xa8;" horiz-adv-x="392" 
d="M80 558v66h62v-66h-62zM250 558v66h62v-66h-62z" />
    <glyph glyph-name="copyright" unicode="&#xa9;" horiz-adv-x="826" 
d="M70 333c0 190 136 344 343 344s343 -154 343 -344c0 -189 -136 -343 -343 -343s-343 154 -343 343zM118 333c0 -166 112 -299 295 -299s295 133 295 299s-112 300 -295 300s-295 -134 -295 -300zM295 261v144c0 70 32 102 120 102c36 0 72 -5 101 -12l-5 -39
c-28 6 -71 10 -93 10c-63 0 -79 -12 -79 -62v-142c0 -50 16 -62 79 -62c22 0 65 4 93 10l5 -39c-29 -7 -65 -12 -101 -12c-88 0 -120 32 -120 102z" />
    <glyph glyph-name="ordfeminine" unicode="&#xaa;" horiz-adv-x="378" 
d="M293 616v-222h-37l-3 20c-20 -12 -52 -26 -83 -26c-60 0 -90 26 -90 86c0 68 29 84 89 84h81v56c0 32 -17 44 -61 44c-32 0 -61 -4 -90 -11l-7 37c26 7 58 12 95 12c77 0 106 -26 106 -80zM250 453v66h-79c-37 0 -48 -7 -48 -45c0 -39 17 -48 49 -48c24 0 59 13 78 27z
" />
    <glyph glyph-name="guillemotleft" unicode="&#xab;" horiz-adv-x="478" 
d="M55 244l128 193l44 -30l-108 -163l108 -163l-44 -30zM241 244l128 193l44 -30l-108 -163l108 -163l-44 -30z" />
    <glyph glyph-name="logicalnot" unicode="&#xac;" horiz-adv-x="566" 
d="M65 217v52h406v-230h-54v178h-352z" />
    <glyph glyph-name="registered" unicode="&#xae;" horiz-adv-x="501" 
d="M70 515c0 100 69 181 181 181s180 -81 180 -181c0 -99 -68 -181 -180 -181s-181 82 -181 181zM105 515c0 -81 51 -147 146 -147s145 66 145 147s-50 148 -145 148s-146 -67 -146 -148zM303 436l-42 55h-40v-55h-24v166h64c36 0 50 -16 50 -43v-25c0 -18 -6 -30 -24 -38
l45 -60h-29zM287 559c0 17 -8 21 -26 21h-40v-67h40c20 0 26 8 26 21v25z" />
    <glyph glyph-name="macron" unicode="&#xaf;" horiz-adv-x="376" 
d="M70 566v48h236v-48h-236z" />
    <glyph glyph-name="degree" unicode="&#xb0;" horiz-adv-x="358" 
d="M283 551c0 -58 -38 -104 -104 -104c-67 0 -104 46 -104 104s38 105 104 105s104 -47 104 -105zM247 551c0 38 -23 73 -68 73s-68 -35 -68 -73c0 -37 23 -72 68 -72s68 35 68 72z" />
    <glyph glyph-name="plusminus" unicode="&#xb1;" horiz-adv-x="566" 
d="M80 297v52h175v178h56v-178h175v-52h-175v-178h-56v178h-175zM486 52v-52h-406v52h406z" />
    <glyph glyph-name="twosuperior" unicode="&#xb2;" horiz-adv-x="386" 
d="M75 243v40c30 38 41 51 102 129c69 89 68 102 68 132v13c0 38 -7 54 -70 54c-30 0 -64 -7 -91 -13l-8 42c26 9 70 16 101 16c85 0 118 -33 118 -93v-26c0 -32 -8 -60 -68 -138c-55 -72 -70 -91 -85 -110h159v-46h-226z" />
    <glyph glyph-name="threesuperior" unicode="&#xb3;" horiz-adv-x="374" 
d="M70 249l7 42c33 -9 70 -12 91 -12c62 0 78 16 78 57v36c0 35 -20 53 -63 53h-83v45h84c43 0 53 20 53 45v49c0 37 -21 48 -67 48c-24 0 -57 -3 -87 -9l-7 41c27 8 67 12 92 12c81 0 117 -33 117 -90v-50c0 -32 -10 -51 -41 -68c32 -12 50 -38 50 -75v-38
c0 -70 -35 -100 -130 -100c-25 0 -62 5 -94 14z" />
    <glyph glyph-name="acute" unicode="&#xb4;" horiz-adv-x="310" 
d="M102 546l-27 41c40 25 87 55 131 86l29 -44c-43 -31 -92 -60 -133 -83z" />
    <glyph glyph-name="mu" unicode="&#xb5;" horiz-adv-x="521" 
d="M80 -197v684h58v-394c0 -36 19 -49 53 -49c40 0 126 24 187 56v387h58v-487h-51l-4 44c-52 -25 -139 -54 -198 -54c-18 0 -33 3 -45 7v-194h-58z" />
    <glyph glyph-name="paragraph" unicode="&#xb6;" horiz-adv-x="502" 
d="M346 666h56v-724c0 -37 -1 -42 -111 -149l-34 38c84 84 89 91 89 109v726zM75 464c0 115 87 202 202 202v-403c-115 0 -202 87 -202 201z" />
    <glyph glyph-name="periodcentered" unicode="&#xb7;" horiz-adv-x="242" 
d="M90 277v86h62v-86h-62z" />
    <glyph glyph-name="cedilla" unicode="&#xb8;" horiz-adv-x="313" 
d="M243 -130c0 -44 -33 -77 -95 -77c-28 0 -55 6 -78 14l9 35c18 -5 43 -9 61 -9c41 0 57 12 57 35c0 19 -16 31 -47 31c-18 0 -44 -3 -58 -6l23 107h42l-15 -70c9 2 20 3 28 3c40 0 73 -20 73 -63z" />
    <glyph glyph-name="onesuperior" unicode="&#xb9;" horiz-adv-x="329" 
d="M80 546l-20 37l109 63h40v-405h-50v347z" />
    <glyph glyph-name="ordmasculine" unicode="&#xba;" horiz-adv-x="392" 
d="M312 588v-91c0 -62 -32 -109 -116 -109s-116 47 -116 109v91c0 61 32 108 116 108s113 -47 116 -108zM270 496v93c0 45 -22 69 -74 69c-50 0 -73 -24 -73 -69v-93c0 -46 23 -70 73 -70c52 0 74 24 74 70z" />
    <glyph glyph-name="guillemotright" unicode="&#xbb;" horiz-adv-x="478" 
d="M295 442l128 -193l-128 -193l-44 30l108 163l-108 163zM109 442l128 -193l-128 -193l-44 30l108 163l-108 163z" />
    <glyph glyph-name="onequarter" unicode="&#xbc;" horiz-adv-x="819" 
d="M526 656l-261 -682l-42 16l262 682zM80 546l-20 37l109 63h40v-405h-50v347zM734 91h-59v-91h-48v91h-184v48l170 266h62v-270h59v-44zM494 135h133v217z" />
    <glyph glyph-name="onehalf" unicode="&#xbd;" horiz-adv-x="828" 
d="M526 656l-261 -682l-42 16l262 682zM80 546l-20 37l109 63h40v-405h-50v347zM517 0v40c30 38 41 51 102 129c69 89 68 102 68 132v13c0 38 -7 54 -70 54c-30 0 -64 -7 -91 -13l-8 42c26 9 70 16 101 16c85 0 118 -33 118 -93v-26c0 -32 -8 -60 -68 -138
c-55 -72 -70 -91 -85 -110h159v-46h-226z" />
    <glyph glyph-name="threequarters" unicode="&#xbe;" horiz-adv-x="849" 
d="M556 656l-261 -682l-42 16l262 682zM764 91h-59v-91h-48v91h-184v48l170 266h62v-270h59v-44zM524 135h133v217zM70 249l7 42c33 -9 70 -12 91 -12c62 0 78 16 78 57v36c0 35 -20 53 -63 53h-83v45h84c43 0 53 20 53 45v49c0 37 -21 48 -67 48c-24 0 -57 -3 -87 -9l-7 41
c27 8 67 12 92 12c81 0 117 -33 117 -90v-50c0 -32 -10 -51 -41 -68c32 -12 50 -38 50 -75v-38c0 -70 -35 -100 -130 -100c-25 0 -62 5 -94 14z" />
    <glyph glyph-name="questiondown" unicode="&#xbf;" horiz-adv-x="458" 
d="M270 258l34 -44c-33 -26 -61 -47 -109 -87c-64 -54 -67 -63 -67 -156c0 -100 11 -126 126 -126c37 0 87 5 134 15l10 -50c-46 -11 -100 -17 -146 -17c-155 0 -182 52 -182 176c0 116 8 137 96 206c42 33 70 56 104 83zM304 487v-96h-62v96h62z" />
    <glyph glyph-name="Agrave" unicode="&#xc0;" horiz-adv-x="621" 
d="M528 0l-63 175h-310l-62 -175h-58l232 666h87l232 -666h-58zM310 632l-137 -406h274zM338 757l-27 -41c-42 22 -86 50 -124 77l29 44c42 -31 82 -56 122 -80z" />
    <glyph glyph-name="Aacute" unicode="&#xc1;" horiz-adv-x="621" 
d="M528 0l-63 175h-310l-62 -175h-58l232 666h87l232 -666h-58zM310 632l-137 -406h274zM309 716l-27 41c40 24 80 49 122 80l29 -44c-38 -27 -82 -55 -124 -77z" />
    <glyph glyph-name="Acircumflex" unicode="&#xc2;" horiz-adv-x="621" 
d="M528 0l-63 175h-310l-62 -175h-58l232 666h87l232 -666h-58zM310 632l-137 -406h274zM208 716l-22 39c42 26 79 50 125 82c42 -30 73 -52 124 -82l-21 -39c-47 25 -69 39 -103 60c-33 -20 -61 -38 -103 -60z" />
    <glyph glyph-name="Atilde" unicode="&#xc3;" horiz-adv-x="621" 
d="M528 0l-63 175h-310l-62 -175h-58l232 666h87l232 -666h-58zM310 632l-137 -406h274zM314 741c-22 10 -37 18 -56 18c-22 0 -37 -11 -54 -28l-26 29c18 27 50 49 82 49c19 0 32 -6 54 -16c27 -12 41 -18 57 -18c17 0 32 7 48 25l29 -26c-17 -28 -45 -49 -77 -49
c-17 0 -31 4 -57 16z" />
    <glyph glyph-name="Adieresis" unicode="&#xc4;" horiz-adv-x="621" 
d="M528 0l-63 175h-310l-62 -175h-58l232 666h87l232 -666h-58zM310 632l-137 -406h274zM191 734v60h66v-60h-66zM363 734v60h66v-60h-66z" />
    <glyph glyph-name="Aring" unicode="&#xc5;" horiz-adv-x="621" 
d="M528 0l-63 175h-310l-62 -175h-58l232 666h87l232 -666h-58zM310 632l-137 -406h274zM373 755c0 -35 -22 -62 -63 -62s-63 27 -63 62c0 36 22 61 63 61s63 -25 63 -61zM339 755c0 20 -9 32 -29 32s-30 -12 -30 -32c0 -19 10 -32 30 -32s29 13 29 32z" />
    <glyph glyph-name="AE" unicode="&#xc6;" horiz-adv-x="839" 
d="M528 0l-63 175h-310l-62 -175h-58l232 666h501v-53h-396l83 -237h291v-53h-273l94 -270h202v-53h-241zM310 632l-137 -406h274z" />
    <glyph glyph-name="Ccedilla" unicode="&#xc7;" horiz-adv-x="511" 
d="M393 -130c0 -44 -33 -77 -95 -77c-28 0 -55 6 -78 14l9 35c18 -5 43 -9 61 -9c41 0 57 12 57 35c0 19 -16 31 -47 31c-18 0 -44 -3 -58 -6l21 98c-136 9 -188 77 -188 192v300c0 124 60 193 221 193c48 0 110 -5 160 -15l-7 -51c-45 8 -105 13 -148 13
c-121 0 -167 -37 -167 -141v-298c0 -104 46 -141 167 -141c43 0 103 5 148 13l7 -51c-47 -9 -105 -14 -151 -15l-13 -60c9 2 20 3 28 3c40 0 73 -20 73 -63z" />
    <glyph glyph-name="Egrave" unicode="&#xc8;" horiz-adv-x="536" 
d="M90 0v666h375v-53h-316v-247h294v-53h-294v-260h317v-53h-376zM322 757l-27 -41c-42 22 -86 50 -124 77l29 44c42 -31 82 -56 122 -80z" />
    <glyph glyph-name="Eacute" unicode="&#xc9;" horiz-adv-x="536" 
d="M90 0v666h375v-53h-316v-247h294v-53h-294v-260h317v-53h-376zM257 716l-27 41c40 24 80 49 122 80l29 -44c-38 -27 -82 -55 -124 -77z" />
    <glyph glyph-name="Ecircumflex" unicode="&#xca;" horiz-adv-x="536" 
d="M90 0v666h375v-53h-316v-247h294v-53h-294v-260h317v-53h-376zM181 716l-22 39c42 26 79 50 125 82c42 -30 73 -52 124 -82l-21 -39c-47 25 -69 39 -103 60c-33 -20 -61 -38 -103 -60z" />
    <glyph glyph-name="Edieresis" unicode="&#xcb;" horiz-adv-x="536" 
d="M90 0v666h375v-53h-316v-247h294v-53h-294v-260h317v-53h-376zM164 734v60h66v-60h-66zM336 734v60h66v-60h-66z" />
    <glyph glyph-name="Igrave" unicode="&#xcc;" horiz-adv-x="249" 
d="M154 666v-666h-59v666h59zM157 757l-27 -41c-42 22 -86 50 -124 77l29 44c42 -31 82 -56 122 -80z" />
    <glyph glyph-name="Iacute" unicode="&#xcd;" horiz-adv-x="249" 
d="M154 666v-666h-59v666h59zM123 716l-27 41c40 24 80 49 122 80l29 -44c-38 -27 -82 -55 -124 -77z" />
    <glyph glyph-name="Icircumflex" unicode="&#xce;" horiz-adv-x="249" 
d="M154 666v-666h-59v666h59zM22 716l-22 39c42 26 79 50 125 82c42 -30 73 -52 124 -82l-21 -39c-47 25 -69 39 -103 60c-33 -20 -61 -38 -103 -60z" />
    <glyph glyph-name="Idieresis" unicode="&#xcf;" horiz-adv-x="249" 
d="M154 666v-666h-59v666h59zM5 734v60h66v-60h-66zM177 734v60h66v-60h-66z" />
    <glyph glyph-name="Eth" unicode="&#xd0;" horiz-adv-x="627" 
d="M50 314v50h77v302h220c162 0 208 -84 208 -197v-272c0 -113 -46 -197 -208 -197h-220v314h-77zM186 613v-249h141v-50h-141v-261h162c112 0 148 46 148 141v278c0 95 -36 141 -148 141h-162z" />
    <glyph glyph-name="Ntilde" unicode="&#xd1;" horiz-adv-x="638" 
d="M462 0l-316 608v-608h-56v666h86l316 -609v609h56v-666h-86zM333 741c-22 10 -37 18 -56 18c-22 0 -37 -11 -54 -28l-26 29c18 27 50 49 82 49c19 0 32 -6 54 -16c27 -12 41 -18 57 -18c17 0 32 7 48 25l29 -26c-17 -28 -45 -49 -77 -49c-17 0 -31 4 -57 16z" />
    <glyph glyph-name="Ograve" unicode="&#xd2;" horiz-adv-x="616" 
d="M541 188c0 -114 -62 -198 -233 -198s-233 84 -233 198v290c0 114 62 198 233 198s233 -84 233 -198v-290zM308 43c128 0 174 52 174 147v286c0 95 -46 147 -174 147s-174 -52 -174 -147v-286c0 -95 46 -147 174 -147zM351 757l-27 -41c-42 22 -86 50 -124 77l29 44
c42 -31 82 -56 122 -80z" />
    <glyph glyph-name="Oacute" unicode="&#xd3;" horiz-adv-x="616" 
d="M541 188c0 -114 -62 -198 -233 -198s-233 84 -233 198v290c0 114 62 198 233 198s233 -84 233 -198v-290zM308 43c128 0 174 52 174 147v286c0 95 -46 147 -174 147s-174 -52 -174 -147v-286c0 -95 46 -147 174 -147zM297 716l-27 41c40 24 80 49 122 80l29 -44
c-38 -27 -82 -55 -124 -77z" />
    <glyph glyph-name="Ocircumflex" unicode="&#xd4;" horiz-adv-x="616" 
d="M541 188c0 -114 -62 -198 -233 -198s-233 84 -233 198v290c0 114 62 198 233 198s233 -84 233 -198v-290zM308 43c128 0 174 52 174 147v286c0 95 -46 147 -174 147s-174 -52 -174 -147v-286c0 -95 46 -147 174 -147zM206 716l-22 39c42 26 79 50 125 82
c42 -30 73 -52 124 -82l-21 -39c-47 25 -69 39 -103 60c-33 -20 -61 -38 -103 -60z" />
    <glyph glyph-name="Otilde" unicode="&#xd5;" horiz-adv-x="616" 
d="M541 188c0 -114 -62 -198 -233 -198s-233 84 -233 198v290c0 114 62 198 233 198s233 -84 233 -198v-290zM308 43c128 0 174 52 174 147v286c0 95 -46 147 -174 147s-174 -52 -174 -147v-286c0 -95 46 -147 174 -147zM315 741c-22 10 -37 18 -56 18
c-22 0 -37 -11 -54 -28l-26 29c18 27 50 49 82 49c19 0 32 -6 54 -16c27 -12 41 -18 57 -18c17 0 32 7 48 25l29 -26c-17 -28 -45 -49 -77 -49c-17 0 -31 4 -57 16z" />
    <glyph glyph-name="Odieresis" unicode="&#xd6;" horiz-adv-x="616" 
d="M541 188c0 -114 -62 -198 -233 -198s-233 84 -233 198v290c0 114 62 198 233 198s233 -84 233 -198v-290zM308 43c128 0 174 52 174 147v286c0 95 -46 147 -174 147s-174 -52 -174 -147v-286c0 -95 46 -147 174 -147zM189 734v60h66v-60h-66zM361 734v60h66v-60h-66z" />
    <glyph glyph-name="multiply" unicode="&#xd7;" horiz-adv-x="548" 
d="M432 438l36 -36l-157 -158l157 -158l-36 -36l-158 157l-158 -157l-36 36l157 158l-157 158l36 36l158 -157z" />
    <glyph glyph-name="Oslash" unicode="&#xd8;" horiz-adv-x="616" 
d="M541 705l-50 -88c35 -35 50 -84 50 -139v-290c0 -114 -62 -198 -233 -198c-64 0 -113 11 -149 32l-46 -82l-38 20l49 89c-35 35 -49 83 -49 139v290c0 114 62 198 233 198c64 0 113 -12 149 -33l46 83zM308 43c128 0 174 52 174 147v286c0 35 -7 64 -21 87l-275 -492
c27 -19 67 -28 122 -28zM134 190c0 -35 6 -64 20 -87l276 492c-28 18 -68 28 -122 28c-128 0 -174 -52 -174 -147v-286z" />
    <glyph glyph-name="Ugrave" unicode="&#xd9;" horiz-adv-x="630" 
d="M486 666h59v-477c0 -113 -68 -199 -230 -199s-230 86 -230 199v477h59v-477c0 -93 59 -146 171 -146s171 53 171 146v477zM357 757l-27 -41c-42 22 -86 50 -124 77l29 44c42 -31 82 -56 122 -80z" />
    <glyph glyph-name="Uacute" unicode="&#xda;" horiz-adv-x="630" 
d="M486 666h59v-477c0 -113 -68 -199 -230 -199s-230 86 -230 199v477h59v-477c0 -93 59 -146 171 -146s171 53 171 146v477zM302 716l-27 41c40 24 80 49 122 80l29 -44c-38 -27 -82 -55 -124 -77z" />
    <glyph glyph-name="Ucircumflex" unicode="&#xdb;" horiz-adv-x="630" 
d="M486 666h59v-477c0 -113 -68 -199 -230 -199s-230 86 -230 199v477h59v-477c0 -93 59 -146 171 -146s171 53 171 146v477zM213 716l-22 39c42 26 79 50 125 82c42 -30 73 -52 124 -82l-21 -39c-47 25 -69 39 -103 60c-33 -20 -61 -38 -103 -60z" />
    <glyph glyph-name="Udieresis" unicode="&#xdc;" horiz-adv-x="630" 
d="M486 666h59v-477c0 -113 -68 -199 -230 -199s-230 86 -230 199v477h59v-477c0 -93 59 -146 171 -146s171 53 171 146v477zM196 734v60h66v-60h-66zM368 734v60h66v-60h-66z" />
    <glyph glyph-name="Yacute" unicode="&#xdd;" horiz-adv-x="543" 
d="M76 666l195 -402l196 402h61l-227 -461v-205h-59v205l-227 461h61zM262 716l-27 41c40 24 80 49 122 80l29 -44c-38 -27 -82 -55 -124 -77z" />
    <glyph glyph-name="Thorn" unicode="&#xde;" horiz-adv-x="544" 
d="M90 0v666h59v-122h167c134 0 183 -61 183 -154v-104c0 -93 -49 -154 -183 -154h-167v-132h-59zM440 390c0 73 -39 101 -123 101h-168v-306h168c84 0 123 28 123 101v104z" />
    <glyph glyph-name="germandbls" unicode="&#xdf;" horiz-adv-x="593" 
d="M311 331c0 36 11 61 30 96c40 72 43 93 43 133c0 58 -34 96 -114 96c-78 0 -122 -40 -122 -139v-517h-58v530c0 110 66 176 181 176c120 0 171 -68 171 -147c0 -37 -6 -78 -39 -137c-25 -45 -34 -66 -34 -93c0 -17 1 -35 74 -83c80 -53 90 -65 90 -137
c0 -75 -22 -119 -144 -119c-30 0 -73 6 -106 19l9 48c29 -9 75 -15 98 -15c67 0 85 11 85 64c0 52 -2 60 -82 110c-74 46 -82 75 -82 115z" />
    <glyph glyph-name="agrave" unicode="&#xe0;" horiz-adv-x="485" 
d="M410 356v-356h-50l-4 38c-47 -29 -101 -48 -165 -48c-86 0 -126 49 -126 136c0 103 47 135 143 135h144v95c0 67 -35 89 -115 89c-48 0 -99 -7 -144 -16l-9 49c39 11 100 19 150 19c126 0 176 -50 176 -141zM352 92v117h-142c-67 0 -87 -20 -87 -84c0 -57 12 -83 80 -83
c48 0 105 19 149 50zM297 587l-27 -41c-41 23 -90 52 -133 83l29 44c44 -31 91 -61 131 -86z" />
    <glyph glyph-name="aacute" unicode="&#xe1;" horiz-adv-x="485" 
d="M410 356v-356h-50l-4 38c-47 -29 -101 -48 -165 -48c-86 0 -126 49 -126 136c0 103 47 135 143 135h144v95c0 67 -35 89 -115 89c-48 0 -99 -7 -144 -16l-9 49c39 11 100 19 150 19c126 0 176 -50 176 -141zM352 92v117h-142c-67 0 -87 -20 -87 -84c0 -57 12 -83 80 -83
c48 0 105 19 149 50zM211 546l-27 41c40 25 87 55 131 86l29 -44c-43 -31 -92 -60 -133 -83z" />
    <glyph glyph-name="acircumflex" unicode="&#xe2;" horiz-adv-x="485" 
d="M410 356v-356h-50l-4 38c-47 -29 -101 -48 -165 -48c-86 0 -126 49 -126 136c0 103 47 135 143 135h144v95c0 67 -35 89 -115 89c-48 0 -99 -7 -144 -16l-9 49c39 11 100 19 150 19c126 0 176 -50 176 -141zM352 92v117h-142c-67 0 -87 -20 -87 -84c0 -57 12 -83 80 -83
c48 0 105 19 149 50zM140 547l-22 39c42 25 83 52 129 84c42 -30 79 -56 128 -84l-21 -39c-44 23 -73 42 -107 62c-33 -20 -65 -40 -107 -62z" />
    <glyph glyph-name="atilde" unicode="&#xe3;" horiz-adv-x="485" 
d="M410 356v-356h-50l-4 38c-47 -29 -101 -48 -165 -48c-86 0 -126 49 -126 136c0 103 47 135 143 135h144v95c0 67 -35 89 -115 89c-48 0 -99 -7 -144 -16l-9 49c39 11 100 19 150 19c126 0 176 -50 176 -141zM352 92v117h-142c-67 0 -87 -20 -87 -84c0 -57 12 -83 80 -83
c48 0 105 19 149 50zM252 568c-22 10 -37 18 -56 18c-22 0 -37 -11 -54 -28l-26 29c18 27 50 49 82 49c19 0 32 -6 54 -16c27 -12 41 -18 57 -18c17 0 32 7 48 25l29 -26c-17 -28 -45 -49 -77 -49c-17 0 -31 4 -57 16z" />
    <glyph glyph-name="adieresis" unicode="&#xe4;" horiz-adv-x="485" 
d="M410 356v-356h-50l-4 38c-47 -29 -101 -48 -165 -48c-86 0 -126 49 -126 136c0 103 47 135 143 135h144v95c0 67 -35 89 -115 89c-48 0 -99 -7 -144 -16l-9 49c39 11 100 19 150 19c126 0 176 -50 176 -141zM352 92v117h-142c-67 0 -87 -20 -87 -84c0 -57 12 -83 80 -83
c48 0 105 19 149 50zM140 558v66h62v-66h-62zM310 558v66h62v-66h-62z" />
    <glyph glyph-name="aring" unicode="&#xe5;" horiz-adv-x="485" 
d="M410 356v-356h-50l-4 38c-47 -29 -101 -48 -165 -48c-86 0 -126 49 -126 136c0 103 47 135 143 135h144v95c0 67 -35 89 -115 89c-48 0 -99 -7 -144 -16l-9 49c39 11 100 19 150 19c126 0 176 -50 176 -141zM352 92v117h-142c-67 0 -87 -20 -87 -84c0 -57 12 -83 80 -83
c48 0 105 19 149 50zM310 605c0 -35 -24 -64 -65 -64s-65 29 -65 64c0 36 24 63 65 63s65 -27 65 -63zM276 605c0 20 -11 34 -31 34s-32 -14 -32 -34c0 -19 12 -34 32 -34s31 15 31 34z" />
    <glyph glyph-name="ae" unicode="&#xe6;" horiz-adv-x="771" 
d="M234 497c71 0 119 -22 147 -68c36 47 75 68 153 68c137 0 177 -77 177 -177v-94h-301v-74c3 -78 36 -111 123 -111c43 0 115 9 158 20l10 -47c-47 -14 -114 -24 -168 -24c-76 0 -124 21 -151 59c-42 -35 -96 -59 -170 -59c-96 0 -147 42 -147 139c0 109 47 135 143 135
h144v68c0 72 -31 113 -111 113c-54 0 -99 -7 -148 -16l-8 49c41 11 90 19 149 19zM410 322v-44h244v44c0 82 -29 125 -120 125s-124 -43 -124 -125zM213 42c59 0 109 21 148 53c-7 22 -9 45 -9 72v45h-141c-64 0 -88 -13 -88 -84c0 -69 30 -86 90 -86z" />
    <glyph glyph-name="ccedilla" unicode="&#xe7;" horiz-adv-x="400" 
d="M113 331v-175c0 -87 35 -114 126 -114c29 0 63 3 104 10l7 -48c-33 -8 -76 -13 -108 -14l-13 -60c9 2 20 3 28 3c40 0 73 -20 73 -63c0 -44 -33 -77 -95 -77c-28 0 -55 6 -78 14l9 35c18 -5 43 -9 61 -9c41 0 57 12 57 35c0 19 -16 31 -47 31c-18 0 -44 -3 -58 -6l21 99
c-107 11 -145 71 -145 166v171c0 105 47 168 184 168c33 0 77 -5 111 -14l-7 -48c-41 7 -75 10 -104 10c-91 0 -126 -27 -126 -114z" />
    <glyph glyph-name="egrave" unicode="&#xe8;" horiz-adv-x="479" 
d="M118 165c0 -87 30 -124 127 -124c50 0 106 10 154 23l10 -47c-45 -16 -109 -27 -168 -27c-137 0 -181 71 -181 177v153c0 100 45 177 182 177s177 -77 177 -177v-94h-301v-61zM118 322v-44h244v44c0 82 -29 125 -120 125s-124 -43 -124 -125zM293 587l-27 -41
c-41 23 -90 52 -133 83l29 44c44 -31 91 -61 131 -86z" />
    <glyph glyph-name="eacute" unicode="&#xe9;" horiz-adv-x="479" 
d="M118 165c0 -87 30 -124 127 -124c50 0 106 10 154 23l10 -47c-45 -16 -109 -27 -168 -27c-137 0 -181 71 -181 177v153c0 100 45 177 182 177s177 -77 177 -177v-94h-301v-61zM118 322v-44h244v44c0 82 -29 125 -120 125s-124 -43 -124 -125zM215 546l-27 41
c40 25 87 55 131 86l29 -44c-43 -31 -92 -60 -133 -83z" />
    <glyph glyph-name="ecircumflex" unicode="&#xea;" horiz-adv-x="479" 
d="M118 165c0 -87 30 -124 127 -124c50 0 106 10 154 23l10 -47c-45 -16 -109 -27 -168 -27c-137 0 -181 71 -181 177v153c0 100 45 177 182 177s177 -77 177 -177v-94h-301v-61zM118 322v-44h244v44c0 82 -29 125 -120 125s-124 -43 -124 -125zM145 547l-22 39
c42 25 83 52 129 84c42 -30 79 -56 128 -84l-21 -39c-44 23 -73 42 -107 62c-33 -20 -65 -40 -107 -62z" />
    <glyph glyph-name="edieresis" unicode="&#xeb;" horiz-adv-x="479" 
d="M118 165c0 -87 30 -124 127 -124c50 0 106 10 154 23l10 -47c-45 -16 -109 -27 -168 -27c-137 0 -181 71 -181 177v153c0 100 45 177 182 177s177 -77 177 -177v-94h-301v-61zM118 322v-44h244v44c0 82 -29 125 -120 125s-124 -43 -124 -125zM125 558v66h62v-66h-62z
M295 558v66h62v-66h-62z" />
    <glyph glyph-name="igrave" unicode="&#xec;" horiz-adv-x="228" 
d="M143 0h-58v487h58v-487zM151 587l-27 -41c-41 23 -90 52 -133 83l29 44c44 -31 91 -61 131 -86z" />
    <glyph glyph-name="iacute" unicode="&#xed;" horiz-adv-x="228" 
d="M143 0h-58v487h58v-487zM111 546l-27 41c40 25 87 55 131 86l29 -44c-43 -31 -92 -60 -133 -83z" />
    <glyph glyph-name="icircumflex" unicode="&#xee;" horiz-adv-x="228" 
d="M143 0h-58v487h58v-487zM8 547l-22 39c42 25 83 52 129 84c42 -30 79 -56 128 -84l-21 -39c-44 23 -73 42 -107 62c-33 -20 -65 -40 -107 -62z" />
    <glyph glyph-name="idieresis" unicode="&#xef;" horiz-adv-x="228" 
d="M143 0h-58v487h58v-487zM-2 558v66h62v-66h-62zM168 558v66h62v-66h-62z" />
    <glyph glyph-name="eth" unicode="&#xf0;" horiz-adv-x="513" 
d="M195 547l73 57c-33 21 -73 38 -118 52l15 45c56 -18 104 -39 144 -65l64 51l25 -33l-55 -43c66 -55 100 -130 100 -238v-206c0 -100 -52 -177 -189 -177s-189 77 -189 177v118c0 125 71 177 178 177c60 0 103 -17 142 -47c-1 66 -26 121 -82 164l-84 -65zM254 42
c91 0 131 41 131 123v185c-23 30 -78 60 -137 60c-91 0 -125 -41 -125 -123v-122c0 -82 40 -123 131 -123z" />
    <glyph glyph-name="ntilde" unicode="&#xf1;" horiz-adv-x="521" 
d="M441 0h-58v394c0 36 -19 49 -53 49c-40 0 -126 -24 -187 -56v-387h-58v487h51l4 -44c52 25 139 54 198 54c76 0 103 -43 103 -110v-387zM267 568c-22 10 -37 18 -56 18c-22 0 -37 -11 -54 -28l-26 29c18 27 50 49 82 49c19 0 32 -6 54 -16c27 -12 41 -18 57 -18
c17 0 32 7 48 25l29 -26c-17 -28 -45 -49 -77 -49c-17 0 -31 4 -57 16z" />
    <glyph glyph-name="ograve" unicode="&#xf2;" horiz-adv-x="498" 
d="M438 167c0 -100 -52 -177 -189 -177s-189 77 -189 177v153c0 100 52 177 189 177s189 -77 189 -177v-153zM380 165v157c0 82 -40 123 -131 123s-131 -41 -131 -123v-157c0 -82 40 -123 131 -123s131 41 131 123zM310 587l-27 -41c-41 23 -90 52 -133 83l29 44
c44 -31 91 -61 131 -86z" />
    <glyph glyph-name="oacute" unicode="&#xf3;" horiz-adv-x="498" 
d="M438 167c0 -100 -52 -177 -189 -177s-189 77 -189 177v153c0 100 52 177 189 177s189 -77 189 -177v-153zM380 165v157c0 82 -40 123 -131 123s-131 -41 -131 -123v-157c0 -82 40 -123 131 -123s131 41 131 123zM227 546l-27 41c40 25 87 55 131 86l29 -44
c-43 -31 -92 -60 -133 -83z" />
    <glyph glyph-name="ocircumflex" unicode="&#xf4;" horiz-adv-x="498" 
d="M438 167c0 -100 -52 -177 -189 -177s-189 77 -189 177v153c0 100 52 177 189 177s189 -77 189 -177v-153zM380 165v157c0 82 -40 123 -131 123s-131 -41 -131 -123v-157c0 -82 40 -123 131 -123s131 41 131 123zM143 547l-22 39c42 25 83 52 129 84
c42 -30 79 -56 128 -84l-21 -39c-44 23 -73 42 -107 62c-33 -20 -65 -40 -107 -62z" />
    <glyph glyph-name="otilde" unicode="&#xf5;" horiz-adv-x="498" 
d="M438 167c0 -100 -52 -177 -189 -177s-189 77 -189 177v153c0 100 52 177 189 177s189 -77 189 -177v-153zM380 165v157c0 82 -40 123 -131 123s-131 -41 -131 -123v-157c0 -82 40 -123 131 -123s131 41 131 123zM257 568c-22 10 -37 18 -56 18c-22 0 -37 -11 -54 -28
l-26 29c18 27 50 49 82 49c19 0 32 -6 54 -16c27 -12 41 -18 57 -18c17 0 32 7 48 25l29 -26c-17 -28 -45 -49 -77 -49c-17 0 -31 4 -57 16z" />
    <glyph glyph-name="odieresis" unicode="&#xf6;" horiz-adv-x="498" 
d="M438 167c0 -100 -52 -177 -189 -177s-189 77 -189 177v153c0 100 52 177 189 177s189 -77 189 -177v-153zM380 165v157c0 82 -40 123 -131 123s-131 -41 -131 -123v-157c0 -82 40 -123 131 -123s131 41 131 123zM133 558v66h62v-66h-62zM303 558v66h62v-66h-62z" />
    <glyph glyph-name="divide" unicode="&#xf7;" horiz-adv-x="566" 
d="M486 269v-52h-406v52h406zM252 44v76h62v-76h-62zM252 366v76h62v-76h-62z" />
    <glyph glyph-name="oslash" unicode="&#xf8;" horiz-adv-x="498" 
d="M438 167c0 -100 -52 -177 -189 -177c-48 0 -86 10 -114 26l-40 -66l-35 21l42 70c-30 32 -42 76 -42 126v153c0 100 52 177 189 177c48 0 85 -10 114 -26l40 66l35 -22l-43 -70c30 -31 43 -76 43 -125v-153zM118 165c0 -29 5 -53 15 -72l202 332c-21 13 -49 20 -86 20
c-91 0 -131 -41 -131 -123v-157zM380 165v157c0 29 -5 53 -16 72l-201 -332c21 -14 49 -20 86 -20c91 0 131 41 131 123z" />
    <glyph glyph-name="ugrave" unicode="&#xf9;" horiz-adv-x="521" 
d="M80 487h58v-394c0 -36 19 -49 53 -49c40 0 126 24 187 56v387h58v-487h-51l-4 44c-52 -25 -139 -54 -198 -54c-76 0 -103 43 -103 110v387zM309 587l-27 -41c-41 23 -90 52 -133 83l29 44c44 -31 91 -61 131 -86z" />
    <glyph glyph-name="uacute" unicode="&#xfa;" horiz-adv-x="521" 
d="M80 487h58v-394c0 -36 19 -49 53 -49c40 0 126 24 187 56v387h58v-487h-51l-4 44c-52 -25 -139 -54 -198 -54c-76 0 -103 43 -103 110v387zM236 546l-27 41c40 25 87 55 131 86l29 -44c-43 -31 -92 -60 -133 -83z" />
    <glyph glyph-name="ucircumflex" unicode="&#xfb;" horiz-adv-x="521" 
d="M80 487h58v-394c0 -36 19 -49 53 -49c40 0 126 24 187 56v387h58v-487h-51l-4 44c-52 -25 -139 -54 -198 -54c-76 0 -103 43 -103 110v387zM161 547l-22 39c42 25 83 52 129 84c42 -30 79 -56 128 -84l-21 -39c-44 23 -73 42 -107 62c-33 -20 -65 -40 -107 -62z" />
    <glyph glyph-name="udieresis" unicode="&#xfc;" horiz-adv-x="521" 
d="M80 487h58v-394c0 -36 19 -49 53 -49c40 0 126 24 187 56v387h58v-487h-51l-4 44c-52 -25 -139 -54 -198 -54c-76 0 -103 43 -103 110v387zM148 558v66h62v-66h-62zM318 558v66h62v-66h-62z" />
    <glyph glyph-name="yacute" unicode="&#xfd;" horiz-adv-x="444" 
d="M434 487l-165 -487l-72 -197h-57l73 197h-33l-165 487h59l150 -446l151 446h59zM205 546l-27 41c40 25 87 55 131 86l29 -44c-43 -31 -92 -60 -133 -83z" />
    <glyph glyph-name="thorn" unicode="&#xfe;" horiz-adv-x="518" 
d="M90 -209v895l58 8v-252c48 36 108 55 162 55c95 0 138 -47 138 -135v-222c0 -89 -40 -150 -150 -150c-51 0 -94 5 -150 16v-203zM148 383v-324c53 -11 105 -17 152 -17c64 0 90 32 90 98v222c0 56 -18 83 -84 83c-60 0 -112 -25 -158 -62z" />
    <glyph glyph-name="ydieresis" unicode="&#xff;" horiz-adv-x="444" 
d="M434 487l-165 -487l-72 -197h-57l73 197h-33l-165 487h59l150 -446l151 446h59zM109 558v66h62v-66h-62zM279 558v66h62v-66h-62z" />
    <glyph glyph-name="Amacron" unicode="&#x100;" horiz-adv-x="621" 
d="M528 0l-63 175h-310l-62 -175h-58l232 666h87l232 -666h-58zM310 632l-137 -406h274zM192 739v45h236v-45h-236z" />
    <glyph glyph-name="amacron" unicode="&#x101;" horiz-adv-x="485" 
d="M410 356v-356h-50l-4 38c-47 -29 -101 -48 -165 -48c-86 0 -126 49 -126 136c0 103 47 135 143 135h144v95c0 67 -35 89 -115 89c-48 0 -99 -7 -144 -16l-9 49c39 11 100 19 150 19c126 0 176 -50 176 -141zM352 92v117h-142c-67 0 -87 -20 -87 -84c0 -57 12 -83 80 -83
c48 0 105 19 149 50zM133 566v48h236v-48h-236z" />
    <glyph glyph-name="Abreve" unicode="&#x102;" horiz-adv-x="621" 
d="M528 0l-63 175h-310l-62 -175h-58l232 666h87l232 -666h-58zM310 632l-137 -406h274zM400 814l33 -30c-21 -31 -62 -68 -123 -68s-102 37 -123 68l33 30c22 -30 53 -53 90 -53s68 23 90 53z" />
    <glyph glyph-name="abreve" unicode="&#x103;" horiz-adv-x="485" 
d="M410 356v-356h-50l-4 38c-47 -29 -101 -48 -165 -48c-86 0 -126 49 -126 136c0 103 47 135 143 135h144v95c0 67 -35 89 -115 89c-48 0 -99 -7 -144 -16l-9 49c39 11 100 19 150 19c126 0 176 -50 176 -141zM352 92v117h-142c-67 0 -87 -20 -87 -84c0 -57 12 -83 80 -83
c48 0 105 19 149 50zM351 641l33 -30c-21 -31 -62 -68 -123 -68s-102 37 -123 68l33 30c22 -30 53 -53 90 -53s68 23 90 53z" />
    <glyph glyph-name="Aogonek" unicode="&#x104;" horiz-adv-x="621" 
d="M586 -192c-18 -10 -38 -15 -64 -15c-44 0 -85 23 -85 76s38 100 91 131l-63 175h-310l-62 -175h-58l232 666h87l232 -666c-55 -38 -98 -76 -98 -127c0 -20 10 -36 41 -36c16 0 29 2 45 8zM310 632l-137 -406h274z" />
    <glyph glyph-name="aogonek" unicode="&#x105;" horiz-adv-x="485" 
d="M410 -192c-18 -10 -38 -15 -64 -15c-44 0 -85 23 -85 76c0 56 46 100 99 131l-4 38c-47 -29 -101 -48 -165 -48c-86 0 -126 49 -126 136c0 103 47 135 143 135h144v95c0 67 -35 89 -115 89c-48 0 -99 -7 -144 -16l-9 49c39 11 100 19 150 19c126 0 176 -50 176 -141v-356
c-55 -38 -98 -76 -98 -127c0 -20 10 -36 41 -36c16 0 29 2 45 8zM352 92v117h-142c-67 0 -87 -20 -87 -84c0 -57 12 -83 80 -83c48 0 105 19 149 50z" />
    <glyph glyph-name="Cacute" unicode="&#x106;" horiz-adv-x="511" 
d="M134 482v-298c0 -104 46 -141 167 -141c43 0 103 5 148 13l7 -51c-50 -10 -112 -15 -160 -15c-161 0 -221 69 -221 193v300c0 124 60 193 221 193c48 0 110 -5 160 -15l-7 -51c-45 8 -105 13 -148 13c-121 0 -167 -37 -167 -141zM266 716l-27 41c40 24 80 49 122 80
l29 -44c-38 -27 -82 -55 -124 -77z" />
    <glyph glyph-name="cacute" unicode="&#x107;" horiz-adv-x="400" 
d="M113 331v-175c0 -87 35 -114 126 -114c29 0 63 3 104 10l7 -48c-34 -9 -78 -14 -111 -14c-137 0 -184 63 -184 168v171c0 105 47 168 184 168c33 0 77 -5 111 -14l-7 -48c-41 7 -75 10 -104 10c-91 0 -126 -27 -126 -114zM192 546l-27 41c40 25 87 55 131 86l29 -44
c-43 -31 -92 -60 -133 -83z" />
    <glyph glyph-name="Ccircumflex" unicode="&#x108;" horiz-adv-x="511" 
d="M134 482v-298c0 -104 46 -141 167 -141c43 0 103 5 148 13l7 -51c-50 -10 -112 -15 -160 -15c-161 0 -221 69 -221 193v300c0 124 60 193 221 193c48 0 110 -5 160 -15l-7 -51c-45 8 -105 13 -148 13c-121 0 -167 -37 -167 -141zM195 716l-22 39c42 26 79 50 125 82
c42 -30 73 -52 124 -82l-21 -39c-47 25 -69 39 -103 60c-33 -20 -61 -38 -103 -60z" />
    <glyph glyph-name="ccircumflex" unicode="&#x109;" horiz-adv-x="400" 
d="M113 331v-175c0 -87 35 -114 126 -114c29 0 63 3 104 10l7 -48c-34 -9 -78 -14 -111 -14c-137 0 -184 63 -184 168v171c0 105 47 168 184 168c33 0 77 -5 111 -14l-7 -48c-41 7 -75 10 -104 10c-91 0 -126 -27 -126 -114zM128 547l-22 39c42 25 83 52 129 84
c42 -30 79 -56 128 -84l-21 -39c-44 23 -73 42 -107 62c-33 -20 -65 -40 -107 -62z" />
    <glyph glyph-name="Cdotaccent" unicode="&#x10a;" horiz-adv-x="511" 
d="M134 482v-298c0 -104 46 -141 167 -141c43 0 103 5 148 13l7 -51c-50 -10 -112 -15 -160 -15c-161 0 -221 69 -221 193v300c0 124 60 193 221 193c48 0 110 -5 160 -15l-7 -51c-45 8 -105 13 -148 13c-121 0 -167 -37 -167 -141zM326 726h-58v107h58v-107z" />
    <glyph glyph-name="cdotaccent" unicode="&#x10b;" horiz-adv-x="400" 
d="M113 331v-175c0 -87 35 -114 126 -114c29 0 63 3 104 10l7 -48c-34 -9 -78 -14 -111 -14c-137 0 -184 63 -184 168v171c0 105 47 168 184 168c33 0 77 -5 111 -14l-7 -48c-41 7 -75 10 -104 10c-91 0 -126 -27 -126 -114zM247 579h-58v107h58v-107z" />
    <glyph glyph-name="Ccaron" unicode="&#x10c;" horiz-adv-x="511" 
d="M134 482v-298c0 -104 46 -141 167 -141c43 0 103 5 148 13l7 -51c-50 -10 -112 -15 -160 -15c-161 0 -221 69 -221 193v300c0 124 60 193 221 193c48 0 110 -5 160 -15l-7 -51c-45 8 -105 13 -148 13c-121 0 -167 -37 -167 -141zM169 802l22 39c42 -22 74 -42 107 -62
c34 20 63 39 107 62l21 -39c-49 -28 -86 -54 -128 -84c-46 32 -87 59 -129 84z" />
    <glyph glyph-name="ccaron" unicode="&#x10d;" horiz-adv-x="400" 
d="M113 331v-175c0 -87 35 -114 126 -114c29 0 63 3 104 10l7 -48c-34 -9 -78 -14 -111 -14c-137 0 -184 63 -184 168v171c0 105 47 168 184 168c33 0 77 -5 111 -14l-7 -48c-41 7 -75 10 -104 10c-91 0 -126 -27 -126 -114zM100 622l22 39c42 -22 74 -42 107 -62
c34 20 63 39 107 62l21 -39c-49 -28 -86 -54 -128 -84c-46 32 -87 59 -129 84z" />
    <glyph glyph-name="Dcaron" unicode="&#x10e;" horiz-adv-x="590" 
d="M90 666h220c162 0 208 -84 208 -197v-272c0 -113 -46 -197 -208 -197h-220v666zM149 613v-560h162c112 0 148 46 148 141v278c0 95 -36 141 -148 141h-162zM158 802l22 39c42 -22 74 -42 107 -62c34 20 63 39 107 62l21 -39c-49 -28 -86 -54 -128 -84
c-46 32 -87 59 -129 84z" />
    <glyph glyph-name="dcaron" unicode="&#x10f;" horiz-adv-x="606" 
d="M70 125v222c0 89 40 150 150 150c51 0 94 -5 150 -16v205l58 8v-694h-53l-3 46c-49 -37 -110 -56 -164 -56c-95 0 -138 47 -138 135zM370 104v324c-53 11 -105 17 -152 17c-64 0 -90 -32 -90 -98v-222c0 -56 18 -83 84 -83c60 0 112 25 158 62zM534 600v86h62v-86
l-48 -108l-28 12l36 96h-22z" />
    <glyph glyph-name="Dcroat" unicode="&#x110;" horiz-adv-x="627" 
d="M50 314v50h77v302h220c162 0 208 -84 208 -197v-272c0 -113 -46 -197 -208 -197h-220v314h-77zM186 613v-249h141v-50h-141v-261h162c112 0 148 46 148 141v278c0 95 -36 141 -148 141h-162z" />
    <glyph glyph-name="dcroat" unicode="&#x111;" horiz-adv-x="513" 
d="M250 564v45h120v77l58 8v-85h76v-45h-76v-564h-53l-3 46c-49 -37 -110 -56 -164 -56c-95 0 -138 47 -138 135v222c0 89 40 150 150 150c51 0 94 -5 150 -16v83h-120zM370 104v324c-53 11 -105 17 -152 17c-64 0 -90 -32 -90 -98v-222c0 -56 18 -83 84 -83
c60 0 112 25 158 62z" />
    <glyph glyph-name="Emacron" unicode="&#x112;" horiz-adv-x="536" 
d="M90 0v666h375v-53h-316v-247h294v-53h-294v-260h317v-53h-376zM173 739v45h236v-45h-236z" />
    <glyph glyph-name="emacron" unicode="&#x113;" horiz-adv-x="479" 
d="M118 165c0 -87 30 -124 127 -124c50 0 106 10 154 23l10 -47c-45 -16 -109 -27 -168 -27c-137 0 -181 71 -181 177v153c0 100 45 177 182 177s177 -77 177 -177v-94h-301v-61zM118 322v-44h244v44c0 82 -29 125 -120 125s-124 -43 -124 -125zM131 566v48h236v-48h-236z
" />
    <glyph glyph-name="Ebreve" unicode="&#x114;" horiz-adv-x="536" 
d="M90 0v666h375v-53h-316v-247h294v-53h-294v-260h317v-53h-376zM380 814l33 -30c-21 -31 -62 -68 -123 -68s-102 37 -123 68l33 30c22 -30 53 -53 90 -53s68 23 90 53z" />
    <glyph glyph-name="ebreve" unicode="&#x115;" horiz-adv-x="479" 
d="M118 165c0 -87 30 -124 127 -124c50 0 106 10 154 23l10 -47c-45 -16 -109 -27 -168 -27c-137 0 -181 71 -181 177v153c0 100 45 177 182 177s177 -77 177 -177v-94h-301v-61zM118 322v-44h244v44c0 82 -29 125 -120 125s-124 -43 -124 -125zM344 641l33 -30
c-21 -31 -62 -68 -123 -68s-102 37 -123 68l33 30c22 -30 53 -53 90 -53s68 23 90 53z" />
    <glyph glyph-name="Edotaccent" unicode="&#x116;" horiz-adv-x="536" 
d="M90 0v666h375v-53h-316v-247h294v-53h-294v-260h317v-53h-376zM317 726h-58v107h58v-107z" />
    <glyph glyph-name="edotaccent" unicode="&#x117;" horiz-adv-x="479" 
d="M118 165c0 -87 30 -124 127 -124c50 0 106 10 154 23l10 -47c-45 -16 -109 -27 -168 -27c-137 0 -181 71 -181 177v153c0 100 45 177 182 177s177 -77 177 -177v-94h-301v-61zM118 322v-44h244v44c0 82 -29 125 -120 125s-124 -43 -124 -125zM272 579h-58v107h58v-107z
" />
    <glyph glyph-name="Eogonek" unicode="&#x118;" horiz-adv-x="536" 
d="M90 0v666h375v-53h-316v-247h294v-53h-294v-260h317v-53h-47c-55 -38 -98 -76 -98 -127c0 -20 10 -36 41 -36c16 0 29 2 45 8l12 -37c-18 -10 -38 -15 -64 -15c-44 0 -85 23 -85 76s43 103 96 131h-276z" />
    <glyph glyph-name="eogonek" unicode="&#x119;" horiz-adv-x="479" 
d="M339 -192c-18 -10 -38 -15 -64 -15c-44 0 -85 23 -85 76c0 58 60 100 114 125c-21 -2 -43 -4 -63 -4c-137 0 -181 71 -181 177v153c0 100 45 177 182 177s177 -77 177 -177v-94h-301v-61c0 -87 30 -124 127 -124c50 0 106 10 154 23l10 -47c-91 -33 -168 -88 -168 -144
c0 -20 10 -36 41 -36c16 0 29 2 45 8zM118 322v-44h244v44c0 82 -29 125 -120 125s-124 -43 -124 -125z" />
    <glyph glyph-name="Ecaron" unicode="&#x11a;" horiz-adv-x="536" 
d="M90 0v666h375v-53h-316v-247h294v-53h-294v-260h317v-53h-376zM164 802l22 39c42 -22 74 -42 107 -62c34 20 63 39 107 62l21 -39c-49 -28 -86 -54 -128 -84c-46 32 -87 59 -129 84z" />
    <glyph glyph-name="ecaron" unicode="&#x11b;" horiz-adv-x="479" 
d="M118 165c0 -87 30 -124 127 -124c50 0 106 10 154 23l10 -47c-45 -16 -109 -27 -168 -27c-137 0 -181 71 -181 177v153c0 100 45 177 182 177s177 -77 177 -177v-94h-301v-61zM118 322v-44h244v44c0 82 -29 125 -120 125s-124 -43 -124 -125zM120 622l22 39
c42 -22 74 -42 107 -62c34 20 63 39 107 62l21 -39c-49 -28 -86 -54 -128 -84c-46 32 -87 59 -129 84z" />
    <glyph glyph-name="Gcircumflex" unicode="&#x11c;" horiz-adv-x="571" 
d="M134 481v-296c0 -98 33 -142 158 -142c41 0 99 5 140 15v236h59v-276c-62 -18 -138 -28 -203 -28c-162 0 -213 70 -213 194v298c0 125 59 194 221 194c57 0 133 -7 183 -18l-6 -51c-56 9 -119 16 -176 16c-124 0 -163 -40 -163 -142zM199 716l-22 39c42 26 79 50 125 82
c42 -30 73 -52 124 -82l-21 -39c-47 25 -69 39 -103 60c-33 -20 -61 -38 -103 -60z" />
    <glyph glyph-name="gcircumflex" unicode="&#x11d;" horiz-adv-x="513" 
d="M439 320c0 -110 -59 -171 -187 -171c-25 0 -45 2 -65 6c-27 -22 -38 -41 -38 -64c0 -19 11 -32 44 -35c61 -5 75 -6 140 -11c89 -7 121 -48 121 -116c0 -101 -50 -136 -208 -136c-45 0 -119 9 -171 24l9 46c48 -11 112 -20 164 -20c132 0 149 27 149 83
c0 48 -20 67 -78 71c-62 4 -67 4 -132 9c-72 6 -96 43 -96 86c0 26 11 56 46 82c-49 28 -72 77 -72 146v6c0 110 49 171 187 171c33 0 59 -3 82 -10h134v-42l-61 -5c22 -28 32 -67 32 -114v-6zM383 328c0 88 -34 119 -131 119s-131 -30 -131 -119v-10
c0 -92 42 -119 131 -119s131 31 131 119v10zM154 547l-22 39c42 25 83 52 129 84c42 -30 79 -56 128 -84l-21 -39c-44 23 -73 42 -107 62c-33 -20 -65 -40 -107 -62z" />
    <glyph glyph-name="Gbreve" unicode="&#x11e;" horiz-adv-x="571" 
d="M134 481v-296c0 -98 33 -142 158 -142c41 0 99 5 140 15v236h59v-276c-62 -18 -138 -28 -203 -28c-162 0 -213 70 -213 194v298c0 125 59 194 221 194c57 0 133 -7 183 -18l-6 -51c-56 9 -119 16 -176 16c-124 0 -163 -40 -163 -142zM396 814l33 -30
c-21 -31 -62 -68 -123 -68s-102 37 -123 68l33 30c22 -30 53 -53 90 -53s68 23 90 53z" />
    <glyph glyph-name="gbreve" unicode="&#x11f;" horiz-adv-x="513" 
d="M439 320c0 -110 -59 -171 -187 -171c-25 0 -45 2 -65 6c-27 -22 -38 -41 -38 -64c0 -19 11 -32 44 -35c61 -5 75 -6 140 -11c89 -7 121 -48 121 -116c0 -101 -50 -136 -208 -136c-45 0 -119 9 -171 24l9 46c48 -11 112 -20 164 -20c132 0 149 27 149 83
c0 48 -20 67 -78 71c-62 4 -67 4 -132 9c-72 6 -96 43 -96 86c0 26 11 56 46 82c-49 28 -72 77 -72 146v6c0 110 49 171 187 171c33 0 59 -3 82 -10h134v-42l-61 -5c22 -28 32 -67 32 -114v-6zM383 328c0 88 -34 119 -131 119s-131 -30 -131 -119v-10
c0 -92 42 -119 131 -119s131 31 131 119v10zM350 641l33 -30c-21 -31 -62 -68 -123 -68s-102 37 -123 68l33 30c22 -30 53 -53 90 -53s68 23 90 53z" />
    <glyph glyph-name="Gdotaccent" unicode="&#x120;" horiz-adv-x="571" 
d="M134 481v-296c0 -98 33 -142 158 -142c41 0 99 5 140 15v236h59v-276c-62 -18 -138 -28 -203 -28c-162 0 -213 70 -213 194v298c0 125 59 194 221 194c57 0 133 -7 183 -18l-6 -51c-56 9 -119 16 -176 16c-124 0 -163 -40 -163 -142zM334 726h-58v107h58v-107z" />
    <glyph glyph-name="gdotaccent" unicode="&#x121;" horiz-adv-x="513" 
d="M439 320c0 -110 -59 -171 -187 -171c-25 0 -45 2 -65 6c-27 -22 -38 -41 -38 -64c0 -19 11 -32 44 -35c61 -5 75 -6 140 -11c89 -7 121 -48 121 -116c0 -101 -50 -136 -208 -136c-45 0 -119 9 -171 24l9 46c48 -11 112 -20 164 -20c132 0 149 27 149 83
c0 48 -20 67 -78 71c-62 4 -67 4 -132 9c-72 6 -96 43 -96 86c0 26 11 56 46 82c-49 28 -72 77 -72 146v6c0 110 49 171 187 171c33 0 59 -3 82 -10h134v-42l-61 -5c22 -28 32 -67 32 -114v-6zM383 328c0 88 -34 119 -131 119s-131 -30 -131 -119v-10
c0 -92 42 -119 131 -119s131 31 131 119v10zM286 579h-58v107h58v-107z" />
    <glyph glyph-name="Gcommaaccent" unicode="&#x122;" horiz-adv-x="571" 
d="M134 481v-296c0 -98 33 -142 158 -142c41 0 99 5 140 15v236h59v-276c-62 -18 -138 -28 -203 -28c-162 0 -213 70 -213 194v298c0 125 59 194 221 194c57 0 133 -7 183 -18l-6 -51c-56 9 -119 16 -176 16c-124 0 -163 -40 -163 -142zM266 -143v86h62v-86l-48 -108l-28 12
l36 96h-22z" />
    <glyph glyph-name="gcommaaccent" unicode="&#x123;" horiz-adv-x="513" 
d="M280 629v-86h-62v86l48 108l28 -12l-36 -96h22zM439 320c0 -110 -59 -171 -187 -171c-25 0 -45 2 -65 6c-27 -22 -38 -41 -38 -64c0 -19 11 -32 44 -35c61 -5 75 -6 140 -11c89 -7 121 -48 121 -116c0 -101 -50 -136 -208 -136c-45 0 -119 9 -171 24l9 46
c48 -11 112 -20 164 -20c132 0 149 27 149 83c0 48 -20 67 -78 71c-62 4 -67 4 -132 9c-72 6 -96 43 -96 86c0 26 11 56 46 82c-49 28 -72 77 -72 146v6c0 110 49 171 187 171c33 0 59 -3 82 -10h134v-42l-61 -5c22 -28 32 -67 32 -114v-6zM383 328c0 88 -34 119 -131 119
s-131 -30 -131 -119v-10c0 -92 42 -119 131 -119s131 31 131 119v10z" />
    <glyph glyph-name="Hcircumflex" unicode="&#x124;" horiz-adv-x="620" 
d="M530 0h-59v316h-322v-316h-59v666h59v-297h322v297h59v-666zM208 716l-22 39c42 26 79 50 125 82c42 -30 73 -52 124 -82l-21 -39c-47 25 -69 39 -103 60c-33 -20 -61 -38 -103 -60z" />
    <glyph glyph-name="hcircumflex" unicode="&#x125;" horiz-adv-x="521" 
d="M441 0h-58v394c0 36 -19 49 -53 49c-40 0 -126 -24 -187 -56v-387h-58v686l58 8v-250c52 25 137 53 195 53c76 0 103 -43 103 -110v-387zM16 746l-22 39c42 26 79 50 125 82c42 -30 73 -52 124 -82l-21 -39c-47 25 -69 39 -103 60c-33 -20 -61 -38 -103 -60z" />
    <glyph glyph-name="Hbar" unicode="&#x126;" horiz-adv-x="792" 
d="M95 520v44h81v102h59v-102h322v102h59v-102h81v-44h-81v-520h-59v316h-322v-316h-59v520h-81zM235 369h322v151h-322v-151z" />
    <glyph glyph-name="hbar" unicode="&#x127;" horiz-adv-x="521" 
d="M22 558v45h63v83l58 8v-91h128v-45h-128v-114c52 25 137 53 195 53c76 0 103 -43 103 -110v-387h-58v394c0 36 -19 49 -53 49c-40 0 -126 -24 -187 -56v-387h-58v558h-63z" />
    <glyph glyph-name="Itilde" unicode="&#x128;" horiz-adv-x="249" 
d="M154 666v-666h-59v666h59zM131 741c-22 10 -37 18 -56 18c-22 0 -37 -11 -54 -28l-26 29c18 27 50 49 82 49c19 0 32 -6 54 -16c27 -12 41 -18 57 -18c17 0 32 7 48 25l29 -26c-17 -28 -45 -49 -77 -49c-17 0 -31 4 -57 16z" />
    <glyph glyph-name="itilde" unicode="&#x129;" horiz-adv-x="228" 
d="M143 0h-58v487h58v-487zM121 568c-22 10 -37 18 -56 18c-22 0 -37 -11 -54 -28l-26 29c18 27 50 49 82 49c19 0 32 -6 54 -16c27 -12 41 -18 57 -18c17 0 32 7 48 25l29 -26c-17 -28 -45 -49 -77 -49c-17 0 -31 4 -57 16z" />
    <glyph glyph-name="Imacron" unicode="&#x12a;" horiz-adv-x="249" 
d="M154 666v-666h-59v666h59zM6 739v45h236v-45h-236z" />
    <glyph glyph-name="imacron" unicode="&#x12b;" horiz-adv-x="228" 
d="M143 0h-58v487h58v-487zM-4 566v48h236v-48h-236z" />
    <glyph glyph-name="Ibreve" unicode="&#x12c;" horiz-adv-x="249" 
d="M154 666v-666h-59v666h59zM214 814l33 -30c-21 -31 -62 -68 -123 -68s-102 37 -123 68l33 30c22 -30 53 -53 90 -53s68 23 90 53z" />
    <glyph glyph-name="ibreve" unicode="&#x12d;" horiz-adv-x="228" 
d="M143 0h-58v487h58v-487zM204 641l33 -30c-21 -31 -62 -68 -123 -68s-102 37 -123 68l33 30c22 -30 53 -53 90 -53s68 23 90 53z" />
    <glyph glyph-name="Iogonek" unicode="&#x12e;" horiz-adv-x="249" 
d="M181 -192c-18 -10 -38 -15 -64 -15c-59 0 -84 32 -84 79c0 54 32 97 62 128v666h59v-666c-43 -41 -70 -82 -70 -127c0 -20 9 -36 40 -36c16 0 29 2 45 8z" />
    <glyph glyph-name="iogonek" unicode="&#x12f;" horiz-adv-x="228" 
d="M85 487h58v-487c-43 -41 -70 -82 -70 -127c0 -20 9 -36 40 -36c16 0 29 2 45 8l12 -37c-18 -10 -38 -15 -64 -15c-59 0 -84 32 -84 79c0 54 33 97 63 128v487zM143 579h-58v107h58v-107z" />
    <glyph glyph-name="Idotaccent" unicode="&#x130;" horiz-adv-x="249" 
d="M154 666v-666h-59v666h59zM153 726h-58v107h58v-107z" />
    <glyph glyph-name="dotlessi" unicode="&#x131;" horiz-adv-x="228" 
d="M143 0h-58v487h58v-487z" />
    <glyph glyph-name="IJ" unicode="&#x132;" horiz-adv-x="483" 
d="M154 666v-666h-59v666h59zM339 666h59v-660c0 -83 -6 -88 -120 -199l-39 42c98 96 100 100 100 151v666z" />
    <glyph glyph-name="ij" unicode="&#x133;" horiz-adv-x="451" 
d="M143 0h-58v487h58v-487zM143 579h-58v107h58v-107zM313 487h58v-522c0 -73 -14 -82 -113 -172l-38 42c83 74 93 80 93 139v513zM371 579h-58v107h58v-107z" />
    <glyph glyph-name="Jcircumflex" unicode="&#x134;" horiz-adv-x="234" 
d="M90 666h59v-660c0 -83 -6 -88 -120 -199l-39 42c98 96 100 100 100 151v666zM20 716l-22 39c42 26 79 50 125 82c42 -30 73 -52 124 -82l-21 -39c-47 25 -69 39 -103 60c-33 -20 -61 -38 -103 -60z" />
    <glyph glyph-name="jcircumflex" unicode="&#x135;" horiz-adv-x="223" 
d="M85 487h58v-522c0 -73 -14 -82 -113 -172l-38 42c83 74 93 80 93 139v513zM10 547l-22 39c42 25 83 52 129 84c42 -30 79 -56 128 -84l-21 -39c-44 23 -73 42 -107 62c-33 -20 -65 -40 -107 -62z" />
    <glyph glyph-name="Kcommaaccent" unicode="&#x136;" horiz-adv-x="569" 
d="M149 666v-666h-59v666h59zM510 666l-267 -327l286 -339h-74l-283 339l265 327h73zM260 -143v86h62v-86l-48 -108l-28 12l36 96h-22z" />
    <glyph glyph-name="kcommaaccent" unicode="&#x137;" horiz-adv-x="471" 
d="M143 0h-58v686l58 8v-694zM361 487h72l-194 -240l202 -247h-74l-198 247zM213 -143v86h62v-86l-48 -108l-28 12l36 96h-22z" />
    <glyph glyph-name="kgreenlandic" unicode="&#x138;" horiz-adv-x="471" 
d="M143 0h-58v487h58v-487zM361 487h72l-194 -240l202 -247h-74l-198 247z" />
    <glyph glyph-name="Lacute" unicode="&#x139;" horiz-adv-x="494" 
d="M149 666v-613h300v-53h-359v666h59zM124 716l-27 41c40 24 80 49 122 80l29 -44c-38 -27 -82 -55 -124 -77z" />
    <glyph glyph-name="lacute" unicode="&#x13a;" horiz-adv-x="228" 
d="M143 0h-58v686l58 8v-694zM105 744l-27 41c40 24 80 49 122 80l29 -44c-38 -27 -82 -55 -124 -77z" />
    <glyph glyph-name="Lcommaaccent" unicode="&#x13b;" horiz-adv-x="494" 
d="M149 666v-613h300v-53h-359v666h59zM251 -143v86h62v-86l-48 -108l-28 12l36 96h-22z" />
    <glyph glyph-name="lcommaaccent" unicode="&#x13c;" horiz-adv-x="228" 
d="M143 0h-58v686l58 8v-694zM84 -143v86h62v-86l-48 -108l-28 12l36 96h-22z" />
    <glyph glyph-name="Lcaron" unicode="&#x13d;" horiz-adv-x="494" 
d="M149 666v-613h300v-53h-359v666h59zM319 600v86h62v-86l-48 -108l-28 12l36 96h-22z" />
    <glyph glyph-name="lcaron" unicode="&#x13e;" horiz-adv-x="320" 
d="M143 0h-58v686l58 8v-694zM248 600v86h62v-86l-48 -108l-28 12l36 96h-22z" />
    <glyph glyph-name="Ldot" unicode="&#x13f;" horiz-adv-x="494" 
d="M149 666v-613h300v-53h-359v666h59zM279 308v86h62v-86h-62z" />
    <glyph glyph-name="ldot" unicode="&#x140;" horiz-adv-x="344" 
d="M143 0h-58v686l58 8v-694zM242 230v86h62v-86h-62z" />
    <glyph glyph-name="Lslash" unicode="&#x141;" horiz-adv-x="521" 
d="M55 254l-25 45l87 47v320h59v-287l146 80l25 -45l-171 -94v-267h300v-53h-359v288z" />
    <glyph glyph-name="lslash" unicode="&#x142;" horiz-adv-x="317" 
d="M60 254l-25 45l87 47v340l58 8v-316l77 42l25 -45l-102 -56v-319h-58v288z" />
    <glyph glyph-name="Nacute" unicode="&#x143;" horiz-adv-x="638" 
d="M462 0l-316 608v-608h-56v666h86l316 -609v609h56v-666h-86zM312 716l-27 41c40 24 80 49 122 80l29 -44c-38 -27 -82 -55 -124 -77z" />
    <glyph glyph-name="nacute" unicode="&#x144;" horiz-adv-x="521" 
d="M441 0h-58v394c0 36 -19 49 -53 49c-40 0 -126 -24 -187 -56v-387h-58v487h51l4 -44c52 25 139 54 198 54c76 0 103 -43 103 -110v-387zM232 546l-27 41c40 25 87 55 131 86l29 -44c-43 -31 -92 -60 -133 -83z" />
    <glyph glyph-name="Ncommaaccent" unicode="&#x145;" horiz-adv-x="638" 
d="M462 0l-316 608v-608h-56v666h86l316 -609v609h56v-666h-86zM281 -143v86h62v-86l-48 -108l-28 12l36 96h-22z" />
    <glyph glyph-name="ncommaaccent" unicode="&#x146;" horiz-adv-x="521" 
d="M441 0h-58v394c0 36 -19 49 -53 49c-40 0 -126 -24 -187 -56v-387h-58v487h51l4 -44c52 25 139 54 198 54c76 0 103 -43 103 -110v-387zM237 -143v86h62v-86l-48 -108l-28 12l36 96h-22z" />
    <glyph glyph-name="Ncaron" unicode="&#x147;" horiz-adv-x="638" 
d="M462 0l-316 608v-608h-56v666h86l316 -609v609h56v-666h-86zM193 802l22 39c42 -22 74 -42 107 -62c34 20 63 39 107 62l21 -39c-49 -28 -86 -54 -128 -84c-46 32 -87 59 -129 84z" />
    <glyph glyph-name="ncaron" unicode="&#x148;" horiz-adv-x="521" 
d="M441 0h-58v394c0 36 -19 49 -53 49c-40 0 -126 -24 -187 -56v-387h-58v487h51l4 -44c52 25 139 54 198 54c76 0 103 -43 103 -110v-387zM141 622l22 39c42 -22 74 -42 107 -62c34 20 63 39 107 62l21 -39c-49 -28 -86 -54 -128 -84c-46 32 -87 59 -129 84z" />
    <glyph glyph-name="Eng" unicode="&#x14a;" horiz-adv-x="638" 
d="M462 0l-316 608v-608h-56v666h86l316 -609v609h56v-701c0 -73 -14 -82 -113 -172l-38 42c83 74 93 80 93 139v26h-28z" />
    <glyph glyph-name="eng" unicode="&#x14b;" horiz-adv-x="521" 
d="M383 394c0 36 -19 49 -53 49c-40 0 -126 -24 -187 -56v-387h-58v487h51l4 -44c52 25 139 54 198 54c76 0 103 -43 103 -110v-422c0 -73 -14 -82 -113 -172l-38 42c83 74 93 80 93 139v420z" />
    <glyph glyph-name="Omacron" unicode="&#x14c;" horiz-adv-x="616" 
d="M541 188c0 -114 -62 -198 -233 -198s-233 84 -233 198v290c0 114 62 198 233 198s233 -84 233 -198v-290zM308 43c128 0 174 52 174 147v286c0 95 -46 147 -174 147s-174 -52 -174 -147v-286c0 -95 46 -147 174 -147zM190 739v45h236v-45h-236z" />
    <glyph glyph-name="omacron" unicode="&#x14d;" horiz-adv-x="498" 
d="M438 167c0 -100 -52 -177 -189 -177s-189 77 -189 177v153c0 100 52 177 189 177s189 -77 189 -177v-153zM380 165v157c0 82 -40 123 -131 123s-131 -41 -131 -123v-157c0 -82 40 -123 131 -123s131 41 131 123zM132 566v48h236v-48h-236z" />
    <glyph glyph-name="Obreve" unicode="&#x14e;" horiz-adv-x="616" 
d="M541 188c0 -114 -62 -198 -233 -198s-233 84 -233 198v290c0 114 62 198 233 198s233 -84 233 -198v-290zM308 43c128 0 174 52 174 147v286c0 95 -46 147 -174 147s-174 -52 -174 -147v-286c0 -95 46 -147 174 -147zM398 814l33 -30c-21 -31 -62 -68 -123 -68
s-102 37 -123 68l33 30c22 -30 53 -53 90 -53s68 23 90 53z" />
    <glyph glyph-name="obreve" unicode="&#x14f;" horiz-adv-x="498" 
d="M438 167c0 -100 -52 -177 -189 -177s-189 77 -189 177v153c0 100 52 177 189 177s189 -77 189 -177v-153zM380 165v157c0 82 -40 123 -131 123s-131 -41 -131 -123v-157c0 -82 40 -123 131 -123s131 41 131 123zM340 641l33 -30c-21 -31 -62 -68 -123 -68
s-102 37 -123 68l33 30c22 -30 53 -53 90 -53s68 23 90 53z" />
    <glyph glyph-name="Ohungarumlaut" unicode="&#x150;" horiz-adv-x="616" 
d="M541 188c0 -114 -62 -198 -233 -198s-233 84 -233 198v290c0 114 62 198 233 198s233 -84 233 -198v-290zM308 43c128 0 174 52 174 147v286c0 95 -46 147 -174 147s-174 -52 -174 -147v-286c0 -95 46 -147 174 -147zM232 710l-32 37c37 30 79 66 119 102l34 -40
c-38 -36 -83 -71 -121 -99zM381 710l-32 38c36 30 79 65 119 102l34 -40c-39 -36 -83 -71 -121 -100z" />
    <glyph glyph-name="ohungarumlaut" unicode="&#x151;" horiz-adv-x="498" 
d="M438 167c0 -100 -52 -177 -189 -177s-189 77 -189 177v153c0 100 52 177 189 177s189 -77 189 -177v-153zM380 165v157c0 82 -40 123 -131 123s-131 -41 -131 -123v-157c0 -82 40 -123 131 -123s131 41 131 123zM169 530l-32 37c37 30 79 66 119 102l34 -40
c-38 -36 -83 -71 -121 -99zM318 530l-32 38c36 30 79 65 119 102l34 -40c-39 -36 -83 -71 -121 -100z" />
    <glyph glyph-name="OE" unicode="&#x152;" horiz-adv-x="895" 
d="M825 0h-517c-171 0 -233 84 -233 198v270c0 114 62 198 233 198h516v-53h-316v-237h294v-53h-294v-270h317v-53zM308 53h141v560h-141c-128 0 -174 -52 -174 -147v-266c0 -95 46 -147 174 -147z" />
    <glyph glyph-name="oe" unicode="&#x153;" horiz-adv-x="799" 
d="M438 159c0 -86 34 -118 123 -118c43 0 115 9 158 20l10 -47c-47 -14 -114 -24 -168 -24c-80 0 -131 28 -155 70c-30 -42 -74 -70 -157 -70c-137 0 -189 77 -189 177v153c0 100 52 177 189 177c79 0 127 -28 159 -72c27 44 75 72 154 72c137 0 177 -77 177 -177v-94h-301
v-67zM380 159v163c0 82 -40 123 -131 123s-131 -41 -131 -123v-157c0 -82 40 -123 131 -123c88 0 131 39 131 117zM438 322v-44h244v44c0 82 -29 125 -120 125s-124 -43 -124 -125z" />
    <glyph glyph-name="Racute" unicode="&#x154;" horiz-adv-x="619" 
d="M512 0l-173 256h-13h-177v-256h-59v666h236c134 0 183 -61 183 -154v-102c0 -73 -30 -127 -108 -146l178 -264h-67zM450 512c0 73 -39 101 -123 101h-178v-304h178c84 0 123 28 123 101v102zM267 716l-27 41c40 24 80 49 122 80l29 -44c-38 -27 -82 -55 -124 -77z" />
    <glyph glyph-name="racute" unicode="&#x155;" horiz-adv-x="312" 
d="M290 497l7 -57c-51 -22 -107 -59 -154 -90v-350h-58v487h52l3 -74c52 34 104 67 150 84zM125 546l-27 41c40 25 87 55 131 86l29 -44c-43 -31 -92 -60 -133 -83z" />
    <glyph glyph-name="Rcommaaccent" unicode="&#x156;" horiz-adv-x="619" 
d="M512 0l-173 256h-13h-177v-256h-59v666h236c134 0 183 -61 183 -154v-102c0 -73 -30 -127 -108 -146l178 -264h-67zM450 512c0 73 -39 101 -123 101h-178v-304h178c84 0 123 28 123 101v102zM285 -143v86h62v-86l-48 -108l-28 12l36 96h-22z" />
    <glyph glyph-name="rcommaaccent" unicode="&#x157;" horiz-adv-x="312" 
d="M290 497l7 -57c-51 -22 -107 -59 -154 -90v-350h-58v487h52l3 -74c52 34 104 67 150 84zM82 -143v86h62v-86l-48 -108l-28 12l36 96h-22z" />
    <glyph glyph-name="Rcaron" unicode="&#x158;" horiz-adv-x="619" 
d="M512 0l-173 256h-13h-177v-256h-59v666h236c134 0 183 -61 183 -154v-102c0 -73 -30 -127 -108 -146l178 -264h-67zM450 512c0 73 -39 101 -123 101h-178v-304h178c84 0 123 28 123 101v102zM166 802l22 39c42 -22 74 -42 107 -62c34 20 63 39 107 62l21 -39
c-49 -28 -86 -54 -128 -84c-46 32 -87 59 -129 84z" />
    <glyph glyph-name="rcaron" unicode="&#x159;" horiz-adv-x="312" 
d="M291 497l7 -57c-51 -22 -107 -59 -154 -90v-350h-58v487h52l3 -74c52 34 104 67 150 84zM58 622l22 39c42 -22 74 -42 107 -62c34 20 63 39 107 62l21 -39c-49 -28 -86 -54 -128 -84c-46 32 -87 59 -129 84z" />
    <glyph glyph-name="Sacute" unicode="&#x15a;" horiz-adv-x="544" 
d="M469 165c0 -109 -37 -175 -206 -175c-58 0 -131 10 -188 32l11 48c60 -18 121 -27 179 -27c114 0 145 34 145 119c0 103 -1 114 -149 148c-161 37 -179 66 -179 200c0 109 40 166 207 166c58 0 127 -10 172 -23l-7 -50c-49 11 -111 20 -163 20c-132 0 -150 -32 -150 -115
c0 -108 3 -113 143 -148c175 -44 185 -69 185 -195zM260 716l-27 41c40 24 80 49 122 80l29 -44c-38 -27 -82 -55 -124 -77z" />
    <glyph glyph-name="sacute" unicode="&#x15b;" horiz-adv-x="435" 
d="M375 123c0 -88 -32 -133 -162 -133c-49 0 -107 10 -143 25l10 47c42 -13 93 -20 129 -20c90 0 108 17 108 79c0 70 -2 77 -113 103c-122 29 -132 59 -132 148c0 81 39 125 159 125c45 0 100 -6 138 -17l-6 -49c-39 8 -96 14 -136 14c-85 0 -97 -22 -97 -75
c0 -67 4 -74 94 -97c143 -36 151 -59 151 -150zM194 546l-27 41c40 25 87 55 131 86l29 -44c-43 -31 -92 -60 -133 -83z" />
    <glyph glyph-name="Scircumflex" unicode="&#x15c;" horiz-adv-x="544" 
d="M469 165c0 -109 -37 -175 -206 -175c-58 0 -131 10 -188 32l11 48c60 -18 121 -27 179 -27c114 0 145 34 145 119c0 103 -1 114 -149 148c-161 37 -179 66 -179 200c0 109 40 166 207 166c58 0 127 -10 172 -23l-7 -50c-49 11 -111 20 -163 20c-132 0 -150 -32 -150 -115
c0 -108 3 -113 143 -148c175 -44 185 -69 185 -195zM193 716l-22 39c42 26 79 50 125 82c42 -30 73 -52 124 -82l-21 -39c-47 25 -69 39 -103 60c-33 -20 -61 -38 -103 -60z" />
    <glyph glyph-name="scircumflex" unicode="&#x15d;" horiz-adv-x="435" 
d="M375 123c0 -88 -32 -133 -162 -133c-49 0 -107 10 -143 25l10 47c42 -13 93 -20 129 -20c90 0 108 17 108 79c0 70 -2 77 -113 103c-122 29 -132 59 -132 148c0 81 39 125 159 125c45 0 100 -6 138 -17l-6 -49c-39 8 -96 14 -136 14c-85 0 -97 -22 -97 -75
c0 -67 4 -74 94 -97c143 -36 151 -59 151 -150zM129 547l-22 39c42 25 83 52 129 84c42 -30 79 -56 128 -84l-21 -39c-44 23 -73 42 -107 62c-33 -20 -65 -40 -107 -62z" />
    <glyph glyph-name="Scedilla" unicode="&#x15e;" horiz-adv-x="544" 
d="M366 -130c0 -44 -33 -77 -95 -77c-28 0 -55 6 -78 14l9 35c18 -5 43 -9 61 -9c41 0 57 12 57 35c0 19 -16 31 -47 31c-18 0 -44 -3 -58 -6l21 98c-53 2 -113 12 -161 31l11 48c60 -18 121 -27 179 -27c114 0 145 34 145 119c0 103 -1 114 -149 148
c-161 37 -179 66 -179 200c0 109 40 166 207 166c58 0 127 -10 172 -23l-7 -50c-49 11 -111 20 -163 20c-132 0 -150 -32 -150 -115c0 -108 3 -113 143 -148c175 -44 185 -69 185 -195c0 -106 -35 -171 -191 -175l-13 -60c9 2 20 3 28 3c40 0 73 -20 73 -63z" />
    <glyph glyph-name="scedilla" unicode="&#x15f;" horiz-adv-x="435" 
d="M375 123c0 -83 -29 -127 -140 -132l-13 -61c9 2 20 3 28 3c40 0 73 -20 73 -63c0 -44 -33 -77 -95 -77c-28 0 -55 6 -78 14l9 35c18 -5 43 -9 61 -9c41 0 57 12 57 35c0 19 -16 31 -47 31c-18 0 -44 -3 -58 -6l21 98c-44 2 -92 11 -123 24l10 47c42 -13 93 -20 129 -20
c90 0 108 17 108 79c0 70 -2 77 -113 103c-122 29 -132 59 -132 148c0 81 39 125 159 125c45 0 100 -6 138 -17l-6 -49c-39 8 -96 14 -136 14c-85 0 -97 -22 -97 -75c0 -67 4 -74 94 -97c143 -36 151 -59 151 -150z" />
    <glyph glyph-name="Scaron" unicode="&#x160;" horiz-adv-x="544" 
d="M469 165c0 -109 -37 -175 -206 -175c-58 0 -131 10 -188 32l11 48c60 -18 121 -27 179 -27c114 0 145 34 145 119c0 103 -1 114 -149 148c-161 37 -179 66 -179 200c0 109 40 166 207 166c58 0 127 -10 172 -23l-7 -50c-49 11 -111 20 -163 20c-132 0 -150 -32 -150 -115
c0 -108 3 -113 143 -148c175 -44 185 -69 185 -195zM160 802l22 39c42 -22 74 -42 107 -62c34 20 63 39 107 62l21 -39c-49 -28 -86 -54 -128 -84c-46 32 -87 59 -129 84z" />
    <glyph glyph-name="scaron" unicode="&#x161;" horiz-adv-x="435" 
d="M375 123c0 -88 -32 -133 -162 -133c-49 0 -107 10 -143 25l10 47c42 -13 93 -20 129 -20c90 0 108 17 108 79c0 70 -2 77 -113 103c-122 29 -132 59 -132 148c0 81 39 125 159 125c45 0 100 -6 138 -17l-6 -49c-39 8 -96 14 -136 14c-85 0 -97 -22 -97 -75
c0 -67 4 -74 94 -97c143 -36 151 -59 151 -150zM98 622l22 39c42 -22 74 -42 107 -62c34 20 63 39 107 62l21 -39c-49 -28 -86 -54 -128 -84c-46 32 -87 59 -129 84z" />
    <glyph glyph-name="Tcommaaccent" unicode="&#x162;" horiz-adv-x="519" 
d="M230 0v613h-205v53h469v-53h-205v-613h-59zM228 -143v86h62v-86l-48 -108l-28 12l36 96h-22z" />
    <glyph glyph-name="Tcommaaccent" unicode="&#x21a;" horiz-adv-x="519" 
d="M230 0v613h-205v53h469v-53h-205v-613h-59zM228 -143v86h62v-86l-48 -108l-28 12l36 96h-22z" />
    <glyph glyph-name="tcommaaccent" unicode="&#x163;" horiz-adv-x="371" 
d="M325 54l11 -45c-28 -11 -67 -19 -102 -19c-77 0 -110 28 -110 105v342h-94v50h94v115l58 8v-123h149l-6 -50h-143v-336c0 -43 6 -61 56 -61c27 0 58 5 87 14zM192 -143v86h62v-86l-48 -108l-28 12l36 96h-22z" />
    <glyph glyph-name="tcommaaccent" unicode="&#x21b;" horiz-adv-x="371" 
d="M325 54l11 -45c-28 -11 -67 -19 -102 -19c-77 0 -110 28 -110 105v342h-94v50h94v115l58 8v-123h149l-6 -50h-143v-336c0 -43 6 -61 56 -61c27 0 58 5 87 14zM192 -143v86h62v-86l-48 -108l-28 12l36 96h-22z" />
    <glyph glyph-name="Tcaron" unicode="&#x164;" horiz-adv-x="519" 
d="M230 0v613h-205v53h469v-53h-205v-613h-59zM131 802l22 39c42 -22 74 -42 107 -62c34 20 63 39 107 62l21 -39c-49 -28 -86 -54 -128 -84c-46 32 -87 59 -129 84z" />
    <glyph glyph-name="tcaron" unicode="&#x165;" horiz-adv-x="371" 
d="M325 54l11 -45c-28 -11 -67 -19 -102 -19c-77 0 -110 28 -110 105v342h-94v50h94v115l58 8v-123h149l-6 -50h-143v-336c0 -43 6 -61 56 -61c27 0 58 5 87 14zM294 620v76h60v-76l-37 -77l-28 12l25 65h-20z" />
    <glyph glyph-name="Tbar" unicode="&#x166;" horiz-adv-x="519" 
d="M55 305v44h175v264h-205v53h469v-53h-205v-264h175v-44h-175v-305h-59v305h-175z" />
    <glyph glyph-name="tbar" unicode="&#x167;" horiz-adv-x="371" 
d="M30 231v42h94v164h-94v50h94v115l58 8v-123h149l-6 -50h-143v-164h130v-42h-130v-130c0 -43 6 -61 56 -61c27 0 58 5 87 14l11 -45c-28 -11 -67 -19 -102 -19c-77 0 -110 28 -110 105v136h-94z" />
    <glyph glyph-name="Utilde" unicode="&#x168;" horiz-adv-x="630" 
d="M486 666h59v-477c0 -113 -68 -199 -230 -199s-230 86 -230 199v477h59v-477c0 -93 59 -146 171 -146s171 53 171 146v477zM332 741c-22 10 -37 18 -56 18c-22 0 -37 -11 -54 -28l-26 29c18 27 50 49 82 49c19 0 32 -6 54 -16c27 -12 41 -18 57 -18c17 0 32 7 48 25
l29 -26c-17 -28 -45 -49 -77 -49c-17 0 -31 4 -57 16z" />
    <glyph glyph-name="utilde" unicode="&#x169;" horiz-adv-x="521" 
d="M80 487h58v-394c0 -36 19 -49 53 -49c40 0 126 24 187 56v387h58v-487h-51l-4 44c-52 -25 -139 -54 -198 -54c-76 0 -103 43 -103 110v387zM276 568c-22 10 -37 18 -56 18c-22 0 -37 -11 -54 -28l-26 29c18 27 50 49 82 49c19 0 32 -6 54 -16c27 -12 41 -18 57 -18
c17 0 32 7 48 25l29 -26c-17 -28 -45 -49 -77 -49c-17 0 -31 4 -57 16z" />
    <glyph glyph-name="Umacron" unicode="&#x16a;" horiz-adv-x="630" 
d="M486 666h59v-477c0 -113 -68 -199 -230 -199s-230 86 -230 199v477h59v-477c0 -93 59 -146 171 -146s171 53 171 146v477zM196 739v45h236v-45h-236z" />
    <glyph glyph-name="umacron" unicode="&#x16b;" horiz-adv-x="521" 
d="M80 487h58v-394c0 -36 19 -49 53 -49c40 0 126 24 187 56v387h58v-487h-51l-4 44c-52 -25 -139 -54 -198 -54c-76 0 -103 43 -103 110v387zM153 566v48h236v-48h-236z" />
    <glyph glyph-name="Ubreve" unicode="&#x16c;" horiz-adv-x="630" 
d="M486 666h59v-477c0 -113 -68 -199 -230 -199s-230 86 -230 199v477h59v-477c0 -93 59 -146 171 -146s171 53 171 146v477zM405 814l33 -30c-21 -31 -62 -68 -123 -68s-102 37 -123 68l33 30c22 -30 53 -53 90 -53s68 23 90 53z" />
    <glyph glyph-name="ubreve" unicode="&#x16d;" horiz-adv-x="521" 
d="M80 487h58v-394c0 -36 19 -49 53 -49c40 0 126 24 187 56v387h58v-487h-51l-4 44c-52 -25 -139 -54 -198 -54c-76 0 -103 43 -103 110v387zM361 641l33 -30c-21 -31 -62 -68 -123 -68s-102 37 -123 68l33 30c22 -30 53 -53 90 -53s68 23 90 53z" />
    <glyph glyph-name="Uring" unicode="&#x16e;" horiz-adv-x="630" 
d="M486 666h59v-477c0 -113 -68 -199 -230 -199s-230 86 -230 199v477h59v-477c0 -93 59 -146 171 -146s171 53 171 146v477zM378 755c0 -35 -22 -62 -63 -62s-63 27 -63 62c0 36 22 61 63 61s63 -25 63 -61zM344 755c0 20 -9 32 -29 32s-30 -12 -30 -32
c0 -19 10 -32 30 -32s29 13 29 32z" />
    <glyph glyph-name="uring" unicode="&#x16f;" horiz-adv-x="521" 
d="M80 487h58v-394c0 -36 19 -49 53 -49c40 0 126 24 187 56v387h58v-487h-51l-4 44c-52 -25 -139 -54 -198 -54c-76 0 -103 43 -103 110v387zM325 605c0 -35 -24 -64 -65 -64s-65 29 -65 64c0 36 24 63 65 63s65 -27 65 -63zM291 605c0 20 -11 34 -31 34s-32 -14 -32 -34
c0 -19 12 -34 32 -34s31 15 31 34z" />
    <glyph glyph-name="Uhungarumlaut" unicode="&#x170;" horiz-adv-x="630" 
d="M486 666h59v-477c0 -113 -68 -199 -230 -199s-230 86 -230 199v477h59v-477c0 -93 59 -146 171 -146s171 53 171 146v477zM229 710l-32 37c37 30 79 66 119 102l34 -40c-38 -36 -83 -71 -121 -99zM378 710l-32 38c36 30 79 65 119 102l34 -40c-39 -36 -83 -71 -121 -100z
" />
    <glyph glyph-name="uhungarumlaut" unicode="&#x171;" horiz-adv-x="521" 
d="M80 487h58v-394c0 -36 19 -49 53 -49c40 0 126 24 187 56v387h58v-487h-51l-4 44c-52 -25 -139 -54 -198 -54c-76 0 -103 43 -103 110v387zM171 530l-32 37c37 30 79 66 119 102l34 -40c-38 -36 -83 -71 -121 -99zM320 530l-32 38c36 30 79 65 119 102l34 -40
c-39 -36 -83 -71 -121 -100z" />
    <glyph glyph-name="Uogonek" unicode="&#x172;" horiz-adv-x="630" 
d="M403 -192c-18 -10 -38 -15 -64 -15c-44 0 -85 23 -85 76c0 52 62 98 104 123c-14 -1 -28 -2 -43 -2c-162 0 -230 86 -230 199v477h59v-477c0 -93 59 -146 171 -146s171 53 171 146v477h59v-477c0 -77 -27 -131 -86 -166c-57 -38 -154 -96 -154 -150c0 -20 10 -36 41 -36
c16 0 29 2 45 8z" />
    <glyph glyph-name="uogonek" unicode="&#x173;" horiz-adv-x="521" 
d="M436 -192c-18 -10 -38 -15 -64 -15c-44 0 -85 23 -85 76s45 100 98 131l-4 44c-52 -25 -139 -54 -198 -54c-76 0 -103 43 -103 110v387h58v-394c0 -36 19 -49 53 -49c40 0 126 24 187 56v387h58v-487c-55 -38 -98 -76 -98 -127c0 -20 10 -36 41 -36c16 0 29 2 45 8z" />
    <glyph glyph-name="Wcircumflex" unicode="&#x174;" horiz-adv-x="890" 
d="M593 0l-148 624l-148 -624h-92l-180 666h57l167 -621l149 621h94l149 -621l167 621h57l-180 -666h-92zM343 716l-22 39c42 26 79 50 125 82c42 -30 73 -52 124 -82l-21 -39c-47 25 -69 39 -103 60c-33 -20 -61 -38 -103 -60z" />
    <glyph glyph-name="wcircumflex" unicode="&#x175;" horiz-adv-x="702" 
d="M223 0h-87l-111 487h55l100 -448l132 448h78l131 -448l101 448h55l-111 -487h-87l-128 445zM245 547l-22 39c42 25 83 52 129 84c42 -30 79 -56 128 -84l-21 -39c-44 23 -73 42 -107 62c-33 -20 -65 -40 -107 -62z" />
    <glyph glyph-name="Ycircumflex" unicode="&#x176;" horiz-adv-x="543" 
d="M76 666l195 -402l196 402h61l-227 -461v-205h-59v205l-227 461h61zM169 716l-22 39c42 26 79 50 125 82c42 -30 73 -52 124 -82l-21 -39c-47 25 -69 39 -103 60c-33 -20 -61 -38 -103 -60z" />
    <glyph glyph-name="ycircumflex" unicode="&#x177;" horiz-adv-x="444" 
d="M434 487l-165 -487l-72 -197h-57l73 197h-33l-165 487h59l150 -446l151 446h59zM125 547l-22 39c42 25 83 52 129 84c42 -30 79 -56 128 -84l-21 -39c-44 23 -73 42 -107 62c-33 -20 -65 -40 -107 -62z" />
    <glyph glyph-name="Ydieresis" unicode="&#x178;" horiz-adv-x="543" 
d="M76 666l195 -402l196 402h61l-227 -461v-205h-59v205l-227 461h61zM152 734v60h66v-60h-66zM324 734v60h66v-60h-66z" />
    <glyph glyph-name="Zacute" unicode="&#x179;" horiz-adv-x="576" 
d="M499 613l-364 -560h371v-53h-436v53l363 560h-353v53h419v-53zM271 716l-27 41c40 24 80 49 122 80l29 -44c-38 -27 -82 -55 -124 -77z" />
    <glyph glyph-name="zacute" unicode="&#x17a;" horiz-adv-x="437" 
d="M62 440l1 47h316l-1 -47l-262 -393h271v-47h-332v47l263 393h-256zM194 546l-27 41c40 25 87 55 131 86l29 -44c-43 -31 -92 -60 -133 -83z" />
    <glyph glyph-name="Zdotaccent" unicode="&#x17b;" horiz-adv-x="576" 
d="M499 613l-364 -560h371v-53h-436v53l363 560h-353v53h419v-53zM330 726h-58v107h58v-107z" />
    <glyph glyph-name="zdotaccent" unicode="&#x17c;" horiz-adv-x="437" 
d="M62 440l1 47h316l-1 -47l-262 -393h271v-47h-332v47l263 393h-256zM261 579h-58v107h58v-107z" />
    <glyph glyph-name="Zcaron" unicode="&#x17d;" horiz-adv-x="576" 
d="M499 613l-364 -560h371v-53h-436v53l363 560h-353v53h419v-53zM165 802l22 39c42 -22 74 -42 107 -62c34 20 63 39 107 62l21 -39c-49 -28 -86 -54 -128 -84c-46 32 -87 59 -129 84z" />
    <glyph glyph-name="zcaron" unicode="&#x17e;" horiz-adv-x="437" 
d="M62 440l1 47h316l-1 -47l-262 -393h271v-47h-332v47l263 393h-256zM100 622l22 39c42 -22 74 -42 107 -62c34 20 63 39 107 62l21 -39c-49 -28 -86 -54 -128 -84c-46 32 -87 59 -129 84z" />
    <glyph glyph-name="florin" unicode="&#x192;" horiz-adv-x="507" 
d="M215 377h-91l5 50h91l14 164c7 80 59 115 136 115c28 0 59 -5 87 -14l-10 -45c-31 6 -55 9 -77 9c-55 0 -74 -20 -79 -74l-13 -155h140l-11 -50h-134l-39 -456c-7 -80 -50 -118 -134 -118c-22 0 -55 6 -75 13l10 45c22 -5 43 -8 63 -8c57 0 74 21 78 71z" />
    <glyph glyph-name="Aringacute" unicode="&#x1fa;" horiz-adv-x="621" 
d="M528 0l-63 175h-310l-62 -175h-58l232 666h87l232 -666h-58zM310 632l-137 -406h274zM373 755c0 -35 -22 -62 -63 -62s-63 27 -63 62c0 36 22 61 63 61s63 -25 63 -61zM339 755c0 20 -9 32 -29 32s-30 -12 -30 -32c0 -19 10 -32 30 -32s29 13 29 32zM308 837l-21 33
c40 24 57 33 99 64l23 -36c-38 -27 -59 -39 -101 -61z" />
    <glyph glyph-name="aringacute" unicode="&#x1fb;" horiz-adv-x="485" 
d="M410 356v-356h-50l-4 38c-47 -29 -101 -48 -165 -48c-86 0 -126 49 -126 136c0 103 47 135 143 135h144v95c0 67 -35 89 -115 89c-48 0 -99 -7 -144 -16l-9 49c39 11 100 19 150 19c126 0 176 -50 176 -141zM352 92v117h-142c-67 0 -87 -20 -87 -84c0 -57 12 -83 80 -83
c48 0 105 19 149 50zM313 599c0 -35 -22 -62 -63 -62s-63 27 -63 62c0 36 22 61 63 61s63 -25 63 -61zM279 599c0 20 -9 32 -29 32s-30 -12 -30 -32c0 -19 10 -32 30 -32s29 13 29 32zM244 681l-21 33c40 24 57 33 99 64l23 -36c-38 -27 -59 -39 -101 -61z" />
    <glyph glyph-name="AEacute" unicode="&#x1fc;" horiz-adv-x="839" 
d="M528 0l-63 175h-310l-62 -175h-58l232 666h501v-53h-396l83 -237h291v-53h-273l94 -270h202v-53h-241zM310 632l-137 -406h274zM350 716l-27 41c40 24 80 49 122 80l29 -44c-38 -27 -82 -55 -124 -77z" />
    <glyph glyph-name="aeacute" unicode="&#x1fd;" horiz-adv-x="771" 
d="M234 497c71 0 119 -22 147 -68c36 47 75 68 153 68c137 0 177 -77 177 -177v-94h-301v-74c3 -78 36 -111 123 -111c43 0 115 9 158 20l10 -47c-47 -14 -114 -24 -168 -24c-76 0 -124 21 -151 59c-42 -35 -96 -59 -170 -59c-96 0 -147 42 -147 139c0 109 47 135 143 135
h144v68c0 72 -31 113 -111 113c-54 0 -99 -7 -148 -16l-8 49c41 11 90 19 149 19zM410 322v-44h244v44c0 82 -29 125 -120 125s-124 -43 -124 -125zM213 42c59 0 109 21 148 53c-7 22 -9 45 -9 72v45h-141c-64 0 -88 -13 -88 -84c0 -69 30 -86 90 -86zM376 546l-27 41
c40 25 87 55 131 86l29 -44c-43 -31 -92 -60 -133 -83z" />
    <glyph glyph-name="Oslashacute" unicode="&#x1fe;" horiz-adv-x="616" 
d="M541 705l-50 -88c35 -35 50 -84 50 -139v-290c0 -114 -62 -198 -233 -198c-64 0 -113 11 -149 32l-46 -82l-38 20l49 89c-35 35 -49 83 -49 139v290c0 114 62 198 233 198c64 0 113 -12 149 -33l46 83zM308 43c128 0 174 52 174 147v286c0 35 -7 64 -21 87l-275 -492
c27 -19 67 -28 122 -28zM134 190c0 -35 6 -64 20 -87l276 492c-28 18 -68 28 -122 28c-128 0 -174 -52 -174 -147v-286zM302 716l-27 41c40 24 80 49 122 80l29 -44c-38 -27 -82 -55 -124 -77z" />
    <glyph glyph-name="oslashacute" unicode="&#x1ff;" horiz-adv-x="498" 
d="M438 167c0 -100 -52 -177 -189 -177c-48 0 -86 10 -114 26l-40 -66l-35 21l42 70c-30 32 -42 76 -42 126v153c0 100 52 177 189 177c48 0 85 -10 114 -26l40 66l35 -22l-43 -70c30 -31 43 -76 43 -125v-153zM118 165c0 -29 5 -53 15 -72l202 332c-21 13 -49 20 -86 20
c-91 0 -131 -41 -131 -123v-157zM380 165v157c0 29 -5 53 -16 72l-201 -332c21 -14 49 -20 86 -20c91 0 131 41 131 123zM230 546l-27 41c40 25 87 55 131 86l29 -44c-43 -31 -92 -60 -133 -83z" />
    <glyph glyph-name="Scommaaccent" unicode="&#x218;" horiz-adv-x="544" 
d="M469 165c0 -109 -37 -175 -206 -175c-58 0 -131 10 -188 32l11 48c60 -18 121 -27 179 -27c114 0 145 34 145 119c0 103 -1 114 -149 148c-161 37 -179 66 -179 200c0 109 40 166 207 166c58 0 127 -10 172 -23l-7 -50c-49 11 -111 20 -163 20c-132 0 -150 -32 -150 -115
c0 -108 3 -113 143 -148c175 -44 185 -69 185 -195zM247 -143v86h62v-86l-48 -108l-28 12l36 96h-22z" />
    <glyph glyph-name="scommaaccent" unicode="&#x219;" horiz-adv-x="435" 
d="M375 123c0 -88 -32 -133 -162 -133c-49 0 -107 10 -143 25l10 47c42 -13 93 -20 129 -20c90 0 108 17 108 79c0 70 -2 77 -113 103c-122 29 -132 59 -132 148c0 81 39 125 159 125c45 0 100 -6 138 -17l-6 -49c-39 8 -96 14 -136 14c-85 0 -97 -22 -97 -75
c0 -67 4 -74 94 -97c143 -36 151 -59 151 -150zM196 -143v86h62v-86l-48 -108l-28 12l36 96h-22z" />
    <glyph glyph-name="circumflex" unicode="&#x2c6;" horiz-adv-x="397" 
d="M92 547l-22 39c42 25 83 52 129 84c42 -30 79 -56 128 -84l-21 -39c-44 23 -73 42 -107 62c-33 -20 -65 -40 -107 -62z" />
    <glyph glyph-name="caron" unicode="&#x2c7;" horiz-adv-x="397" 
d="M70 622l22 39c42 -22 74 -42 107 -62c34 20 63 39 107 62l21 -39c-49 -28 -86 -54 -128 -84c-46 32 -87 59 -129 84z" />
    <glyph glyph-name="breve" unicode="&#x2d8;" horiz-adv-x="386" 
d="M283 641l33 -30c-21 -31 -62 -68 -123 -68s-102 37 -123 68l33 30c22 -30 53 -53 90 -53s68 23 90 53z" />
    <glyph glyph-name="dotaccent" unicode="&#x2d9;" horiz-adv-x="198" 
d="M128 579h-58v107h58v-107z" />
    <glyph glyph-name="ring" unicode="&#x2da;" horiz-adv-x="270" 
d="M200 605c0 -35 -24 -64 -65 -64s-65 29 -65 64c0 36 24 63 65 63s65 -27 65 -63zM166 605c0 20 -11 34 -31 34s-32 -14 -32 -34c0 -19 12 -34 32 -34s31 15 31 34z" />
    <glyph glyph-name="ogonek" unicode="&#x2db;" horiz-adv-x="289" 
d="M219 -192c-18 -10 -38 -15 -64 -15c-44 0 -85 23 -85 76s38 100 91 131h58c-55 -38 -98 -76 -98 -127c0 -20 10 -36 41 -36c16 0 29 2 45 8z" />
    <glyph glyph-name="tilde" unicode="&#x2dc;" horiz-adv-x="410" 
d="M206 568c-22 10 -37 18 -56 18c-22 0 -37 -11 -54 -28l-26 29c18 27 50 49 82 49c19 0 32 -6 54 -16c27 -12 41 -18 57 -18c17 0 32 7 48 25l29 -26c-17 -28 -45 -49 -77 -49c-17 0 -31 4 -57 16z" />
    <glyph glyph-name="hungarumlaut" unicode="&#x2dd;" horiz-adv-x="442" 
d="M102 530l-32 37c37 30 79 66 119 102l34 -40c-38 -36 -83 -71 -121 -99zM251 530l-32 38c36 30 79 65 119 102l34 -40c-39 -36 -83 -71 -121 -100z" />
    <glyph glyph-name="Omega" unicode="&#x3a9;" horiz-adv-x="666" 
d="M591 52v-52h-175v52c60 41 86 84 86 140v296c0 89 -59 136 -169 136s-169 -47 -169 -136v-296c0 -56 26 -99 86 -140v-52h-175v52h93c-47 48 -62 86 -62 137v294c0 111 63 193 227 193s227 -82 227 -193v-294c0 -51 -15 -89 -62 -137h93z" />
    <glyph glyph-name="pi" unicode="&#x3c0;" horiz-adv-x="696" 
d="M624 435h-130v-340c0 -45 12 -55 56 -55c21 0 43 4 65 11l11 -45c-21 -9 -53 -16 -80 -16c-77 0 -110 28 -110 105v340h-193v-435h-58v435h-130v52h569v-52z" />
    <glyph glyph-name="Wgrave" unicode="&#x1e80;" horiz-adv-x="890" 
d="M593 0l-148 624l-148 -624h-92l-180 666h57l167 -621l149 621h94l149 -621l167 621h57l-180 -666h-92zM478 757l-27 -41c-42 22 -86 50 -124 77l29 44c42 -31 82 -56 122 -80z" />
    <glyph glyph-name="wgrave" unicode="&#x1e81;" horiz-adv-x="702" 
d="M223 0h-87l-111 487h55l100 -448l132 448h78l131 -448l101 448h55l-111 -487h-87l-128 445zM385 587l-27 -41c-41 23 -90 52 -133 83l29 44c44 -31 91 -61 131 -86z" />
    <glyph glyph-name="Wacute" unicode="&#x1e82;" horiz-adv-x="890" 
d="M593 0l-148 624l-148 -624h-92l-180 666h57l167 -621l149 621h94l149 -621l167 621h57l-180 -666h-92zM443 716l-27 41c40 24 80 49 122 80l29 -44c-38 -27 -82 -55 -124 -77z" />
    <glyph glyph-name="wacute" unicode="&#x1e83;" horiz-adv-x="702" 
d="M223 0h-87l-111 487h55l100 -448l132 448h78l131 -448l101 448h55l-111 -487h-87l-128 445zM343 546l-27 41c40 25 87 55 131 86l29 -44c-43 -31 -92 -60 -133 -83z" />
    <glyph glyph-name="Wdieresis" unicode="&#x1e84;" horiz-adv-x="890" 
d="M593 0l-148 624l-148 -624h-92l-180 666h57l167 -621l149 621h94l149 -621l167 621h57l-180 -666h-92zM326 734v60h66v-60h-66zM498 734v60h66v-60h-66z" />
    <glyph glyph-name="wdieresis" unicode="&#x1e85;" horiz-adv-x="702" 
d="M223 0h-87l-111 487h55l100 -448l132 448h78l131 -448l101 448h55l-111 -487h-87l-128 445zM235 558v66h62v-66h-62zM405 558v66h62v-66h-62z" />
    <glyph glyph-name="Ygrave" unicode="&#x1ef2;" horiz-adv-x="543" 
d="M76 666l195 -402l196 402h61l-227 -461v-205h-59v205l-227 461h61zM307 757l-27 -41c-42 22 -86 50 -124 77l29 44c42 -31 82 -56 122 -80z" />
    <glyph glyph-name="ygrave" unicode="&#x1ef3;" horiz-adv-x="444" 
d="M434 487l-165 -487l-72 -197h-57l73 197h-33l-165 487h59l150 -446l151 446h59zM263 587l-27 -41c-41 23 -90 52 -133 83l29 44c44 -31 91 -61 131 -86z" />
    <glyph glyph-name="endash" unicode="&#x2013;" horiz-adv-x="496" 
d="M75 256v49h346v-49h-346z" />
    <glyph glyph-name="emdash" unicode="&#x2014;" horiz-adv-x="626" 
d="M75 256v49h476v-49h-476z" />
    <glyph glyph-name="quoteleft" unicode="&#x2018;" horiz-adv-x="241" 
d="M152 589v-86h-62v86l48 108l28 -12l-36 -96h22z" />
    <glyph glyph-name="quoteright" unicode="&#x2019;" horiz-adv-x="221" 
d="M94 600v86h62v-86l-48 -108l-28 12l36 96h-22z" />
    <glyph glyph-name="quotesinglbase" unicode="&#x201a;" horiz-adv-x="241" 
d="M89 0v86h62v-86l-48 -108l-28 12l36 96h-22z" />
    <glyph glyph-name="quotedblleft" unicode="&#x201c;" horiz-adv-x="396" 
d="M307 589v-86h-62v86l48 108l28 -12l-36 -96h22zM152 589v-86h-62v86l48 108l28 -12l-36 -96h22z" />
    <glyph glyph-name="quotedblright" unicode="&#x201d;" horiz-adv-x="396" 
d="M89 600v86h62v-86l-48 -108l-28 12l36 96h-22zM244 600v86h62v-86l-48 -108l-28 12l36 96h-22z" />
    <glyph glyph-name="quotedblbase" unicode="&#x201e;" horiz-adv-x="396" 
d="M89 0v86h62v-86l-48 -108l-28 12l36 96h-22zM244 0v86h62v-86l-48 -108l-28 12l36 96h-22z" />
    <glyph glyph-name="dagger" unicode="&#x2020;" horiz-adv-x="496" 
d="M55 432v52h164v182h58v-182h164v-52h-164v-502h-58v502h-164z" />
    <glyph glyph-name="daggerdbl" unicode="&#x2021;" horiz-adv-x="496" 
d="M55 112v52h164v268h-164v52h164v182h58v-182h164v-52h-164v-268h164v-52h-164v-182h-58v182h-164z" />
    <glyph glyph-name="bullet" unicode="&#x2022;" horiz-adv-x="382" 
d="M75 323c0 64 52 116 116 116s116 -52 116 -116s-52 -116 -116 -116s-116 52 -116 116z" />
    <glyph glyph-name="ellipsis" unicode="&#x2026;" horiz-adv-x="706" 
d="M90 0v86h62v-86h-62zM322 0v86h62v-86h-62zM554 0v86h62v-86h-62z" />
    <glyph glyph-name="perthousand" unicode="&#x2030;" horiz-adv-x="1212" 
d="M579 658l-273 -668l-44 17l273 669zM340 544v-100c0 -82 -42 -132 -142 -132s-143 50 -143 132v100c0 82 43 132 143 132s142 -50 142 -132zM105 545v-102c0 -55 23 -87 93 -87s92 32 92 87v102c0 55 -22 87 -92 87s-93 -32 -93 -87zM783 222v-100
c0 -82 -42 -132 -142 -132s-143 50 -143 132v100c0 82 43 132 143 132s142 -50 142 -132zM548 223v-102c0 -55 23 -87 93 -87s92 32 92 87v102c0 55 -22 87 -92 87s-93 -32 -93 -87zM1152 222v-100c0 -82 -42 -132 -142 -132s-143 50 -143 132v100c0 82 43 132 143 132
s142 -50 142 -132zM917 223v-102c0 -55 23 -87 93 -87s92 32 92 87v102c0 55 -22 87 -92 87s-93 -32 -93 -87z" />
    <glyph glyph-name="guilsinglleft" unicode="&#x2039;" horiz-adv-x="292" 
d="M55 244l128 193l44 -30l-108 -163l108 -163l-44 -30z" />
    <glyph glyph-name="guilsinglright" unicode="&#x203a;" horiz-adv-x="292" 
d="M109 437l128 -193l-128 -193l-44 30l108 163l-108 163z" />
    <glyph glyph-name="fraction" unicode="&#x2044;" horiz-adv-x="323" 
d="M313 656l-261 -682l-42 16l262 682z" />
    <glyph glyph-name="Euro" unicode="&#x20ac;" horiz-adv-x="553" 
d="M40 389v46h91v28c0 124 60 193 221 193c48 0 99 -5 146 -15l-7 -51c-38 8 -91 13 -134 13c-121 0 -167 -37 -167 -141v-27h209v-46h-209v-127h209v-46h-209v-32c0 -104 46 -141 167 -141c43 0 89 5 134 13l7 -51c-50 -10 -98 -15 -146 -15c-161 0 -221 69 -221 193v33
h-91v46h91v127h-91z" />
    <glyph glyph-name="uni2113" unicode="&#x2113;" horiz-adv-x="459" 
d="M265 -10c-114 0 -149 66 -149 151v76c-23 -13 -47 -26 -72 -40l-24 44c33 19 66 38 96 56v273c0 94 38 156 138 156c90 0 131 -56 131 -136c0 -135 -68 -223 -211 -317v-111c0 -74 31 -100 90 -100c42 0 78 8 120 28l15 -48c-40 -20 -81 -32 -134 -32zM174 550v-236
c97 74 155 136 155 256c0 53 -27 84 -75 84c-55 0 -80 -34 -80 -104z" />
    <glyph glyph-name="uni2116" unicode="&#x2116;" horiz-adv-x="948" 
d="M420 0l-276 608v-608h-54v666h84l276 -609v609h54v-666h-84zM903 543v-113c0 -81 -44 -133 -142 -133s-142 52 -142 133v113c0 81 44 133 142 133s140 -52 142 -133zM852 545c0 55 -27 85 -91 85s-91 -30 -91 -85v-117c0 -55 27 -85 91 -85s91 30 91 85v117zM629 193v45
h264v-45h-264z" />
    <glyph glyph-name="trademark" unicode="&#x2122;" horiz-adv-x="522" 
d="M429 460l-2 145l-47 -120h-40l-46 121l-3 -146h-33l5 206h39l58 -157l59 157h36l7 -206h-33zM118 460v176h-63v30h158v-30h-63v-176h-32z" />
    <glyph glyph-name="estimated" unicode="&#x212e;" horiz-adv-x="804" 
d="M759 301h-572v-201c54 -47 127 -76 215 -76c120 0 203 42 291 130l24 -24c-78 -80 -170 -140 -315 -140c-202 0 -357 152 -357 333c0 183 163 333 357 333s357 -150 357 -333v-22zM402 622c-84 0 -159 -31 -215 -80v-209h430v209c-56 49 -131 80 -215 80z" />
    <glyph glyph-name="partialdiff" unicode="&#x2202;" horiz-adv-x="562" 
d="M426 387l4 23c23 150 -21 234 -158 234c-46 0 -85 -12 -116 -30l-20 44c43 25 95 38 146 38c159 0 234 -112 203 -296l-43 -251c-17 -100 -56 -159 -207 -159c-141 0 -184 59 -166 159l21 119c17 100 55 159 192 159c43 0 99 -10 144 -40zM283 375
c-97 0 -121 -28 -134 -101l-23 -127c-14 -82 10 -105 118 -105c90 0 124 23 139 105l33 184c-32 25 -90 44 -133 44z" />
    <glyph glyph-name="Delta" unicode="&#x2206;" horiz-adv-x="718" 
d="M391 666l262 -666h-588l262 666h64zM359 612l-215 -562h429z" />
    <glyph glyph-name="product" unicode="&#x220f;" horiz-adv-x="809" 
d="M744 614h-150v-714h-58v714h-263v-714h-58v714h-150v52h679v-52z" />
    <glyph glyph-name="summation" unicode="&#x2211;" horiz-adv-x="563" 
d="M90 -100v52l246 331l-246 331v52h383v-52h-313l246 -331l-246 -331h313v-52h-383z" />
    <glyph glyph-name="minus" unicode="&#x2212;" horiz-adv-x="392" 
d="M65 220v49h262v-49h-262z" />
    <glyph glyph-name="radical" unicode="&#x221a;" horiz-adv-x="672" 
d="M313 0h-67l-176 477l54 20l152 -420l175 653h201v-52h-155z" />
    <glyph glyph-name="infinity" unicode="&#x221e;" horiz-adv-x="864" 
d="M799 274c0 -103 -64 -164 -165 -164c-98 0 -155 66 -202 132c-47 -66 -104 -132 -202 -132c-101 0 -165 61 -165 164s64 166 165 166c98 0 155 -67 202 -133c47 66 104 133 202 133c101 0 165 -63 165 -166zM116 274c0 -77 48 -116 115 -116c79 0 124 57 165 116
c-37 57 -86 118 -165 118c-67 0 -115 -41 -115 -118zM748 274c0 77 -48 118 -115 118c-79 0 -128 -61 -165 -118c41 -59 86 -116 165 -116c67 0 115 39 115 116z" />
    <glyph glyph-name="integral" unicode="&#x222b;" horiz-adv-x="387" 
d="M210 -112c0 -63 -36 -95 -99 -95c-28 0 -57 7 -76 15l8 45c18 -5 46 -10 67 -10c33 0 42 16 42 45v693c0 63 36 95 99 95c28 0 57 -7 76 -15l-8 -45c-18 5 -46 10 -67 10c-33 0 -42 -16 -42 -45v-693z" />
    <glyph glyph-name="approxequal" unicode="&#x2248;" horiz-adv-x="529" 
d="M278 329c24 -14 51 -27 78 -27c32 0 56 11 81 27l22 -39c-25 -21 -63 -40 -103 -40c-37 0 -60 10 -90 28c-25 15 -50 29 -83 29c-32 0 -56 -11 -81 -27l-22 39c26 22 64 40 103 40c38 0 63 -11 95 -30zM278 199c24 -14 51 -27 78 -27c32 0 56 11 81 27l22 -39
c-25 -21 -63 -40 -103 -40c-37 0 -60 10 -90 28c-25 15 -50 29 -83 29c-32 0 -56 -11 -81 -27l-22 39c26 22 64 40 103 40c38 0 63 -11 95 -30z" />
    <glyph glyph-name="notequal" unicode="&#x2260;" horiz-adv-x="509" 
d="M80 309v47h211l58 113l40 -21l-47 -92h87v-47h-111l-65 -125h176v-47h-200l-58 -113l-40 21l47 92h-98v47h122l65 125h-187z" />
    <glyph glyph-name="lessequal" unicode="&#x2264;" horiz-adv-x="544" 
d="M70 0v52h394v-52h-394zM443 466l-298 -142l298 -142l-23 -48l-342 167v46l342 167z" />
    <glyph glyph-name="greaterequal" unicode="&#x2265;" horiz-adv-x="544" 
d="M474 52v-52h-394v52h394zM399 324l-298 142l23 48l342 -167v-46l-342 -167l-23 48z" />
    <glyph glyph-name="lozenge" unicode="&#x25ca;" horiz-adv-x="602" 
d="M50 333l235 333h32l235 -333l-235 -333h-32zM301 602l-189 -269l189 -269l188 269z" />
    <glyph glyph-name="apple" unicode="&#xf8ff;" horiz-adv-x="896" 
d="M791 333h-333v-333h-333v666h666v-333z" />
    <glyph glyph-name="Acute" horiz-adv-x="301" 
d="M102 716l-27 41c40 24 80 49 122 80l29 -44c-38 -27 -82 -55 -124 -77z" />
    <glyph glyph-name="Breve" horiz-adv-x="386" 
d="M283 814l33 -30c-21 -31 -62 -68 -123 -68s-102 37 -123 68l33 30c22 -30 53 -53 90 -53s68 23 90 53z" />
    <glyph glyph-name="Caron" horiz-adv-x="397" 
d="M70 802l22 39c42 -22 74 -42 107 -62c34 20 63 39 107 62l21 -39c-49 -28 -86 -54 -128 -84c-46 32 -87 59 -129 84z" />
    <glyph glyph-name="Cedilla" horiz-adv-x="313" 
d="M243 -130c0 -44 -33 -77 -95 -77c-28 0 -55 6 -78 14l9 35c18 -5 43 -9 61 -9c41 0 57 12 57 35c0 19 -16 31 -47 31c-18 0 -44 -3 -58 -6l23 107h42l-15 -70c9 2 20 3 28 3c40 0 73 -20 73 -63z" />
    <glyph glyph-name="Circumflex" horiz-adv-x="389" 
d="M92 716l-22 39c42 26 79 50 125 82c42 -30 73 -52 124 -82l-21 -39c-47 25 -69 39 -103 60c-33 -20 -61 -38 -103 -60z" />
    <glyph glyph-name="commaaccent" horiz-adv-x="326" 
d="M139 -143v86h62v-86l-48 -108l-28 12l36 96h-22z" />
    <glyph glyph-name="Dieresis" horiz-adv-x="398" 
d="M80 734v60h66v-60h-66zM252 734v60h66v-60h-66z" />
    <glyph glyph-name="Dotaccent" horiz-adv-x="198" 
d="M128 726h-58v107h58v-107z" />
    <glyph glyph-name="Grave" horiz-adv-x="301" 
d="M226 757l-27 -41c-42 22 -86 50 -124 77l29 44c42 -31 82 -56 122 -80z" />
    <glyph glyph-name="Hungarumlaut" horiz-adv-x="442" 
d="M102 710l-32 37c37 30 79 66 119 102l34 -40c-38 -36 -83 -71 -121 -99zM251 710l-32 38c36 30 79 65 119 102l34 -40c-39 -36 -83 -71 -121 -100z" />
    <glyph glyph-name="Macron" horiz-adv-x="376" 
d="M70 739v45h236v-45h-236z" />
    <glyph glyph-name="Ogonek" horiz-adv-x="289" 
d="M219 -192c-18 -10 -38 -15 -64 -15c-44 0 -85 23 -85 76s38 100 91 131h58c-55 -38 -98 -76 -98 -127c0 -20 10 -36 41 -36c16 0 29 2 45 8z" />
    <glyph glyph-name="Ring" horiz-adv-x="266" 
d="M196 755c0 -35 -22 -62 -63 -62s-63 27 -63 62c0 36 22 61 63 61s63 -25 63 -61zM162 755c0 20 -9 32 -29 32s-30 -12 -30 -32c0 -19 10 -32 30 -32s29 13 29 32z" />
    <glyph glyph-name="Tilde" horiz-adv-x="410" 
d="M206 741c-22 10 -37 18 -56 18c-22 0 -37 -11 -54 -28l-26 29c18 27 50 49 82 49c19 0 32 -6 54 -16c27 -12 41 -18 57 -18c17 0 32 7 48 25l29 -26c-17 -28 -45 -49 -77 -49c-17 0 -31 4 -57 16z" />
    <glyph glyph-name="ampersand.salt" horiz-adv-x="644" 
d="M265 206v51h214c50 0 93 13 123 32l22 -43c-35 -24 -92 -40 -144 -40v-55c0 -100 -68 -161 -205 -161c-144 0 -195 74 -195 174v168c0 112 59 165 200 165c51 0 116 -8 151 -18l-6 -48c-48 9 -104 14 -145 14c-102 0 -142 -27 -142 -114v-169c0 -82 41 -120 137 -120
c91 0 148 27 148 109v55h-158z" />
    <glyph glyph-name="minus.onum" horiz-adv-x="392" 
d="M65 220v49h262v-49h-262z" />
    <glyph glyph-name="multiply.onum" horiz-adv-x="548" 
d="M432 438l36 -36l-157 -158l157 -158l-36 -36l-158 157l-158 -157l-36 36l157 158l-157 158l36 36l158 -157z" />
    <glyph glyph-name="numbersign.onum" horiz-adv-x="647" 
d="M571 123h-120l-6 -123h-51l6 123h-181l-6 -123h-51l6 123h-113l3 47h113l9 173h-112l3 47h111l7 120h51l-7 -120h181l7 120h51l-7 -120h122l-3 -47h-121l-9 -173h120zM231 343l-9 -173h181l9 173h-181z" />
    <glyph glyph-name="dollar.onum" horiz-adv-x="469" 
d="M199 -96v87c-45 2 -94 10 -134 25l8 47c48 -13 106 -21 156 -21c90 0 112 18 112 78c0 75 0 77 -116 112c-145 44 -153 63 -153 161c0 85 40 121 144 126v87h56v-87c41 -1 86 -7 120 -16l-7 -50c-46 10 -102 15 -136 15c-99 0 -119 -15 -119 -83c0 -65 4 -68 102 -99
c156 -49 167 -62 167 -166c0 -81 -36 -124 -144 -129v-87h-56z" />
    <glyph glyph-name="percent.onum" horiz-adv-x="732" 
d="M226 10l233 510l43 -20l-233 -510zM305 338c0 -67 -35 -107 -125 -107s-125 40 -125 107v75c0 67 35 107 125 107s125 -40 125 -107v-75zM103 412v-73c0 -41 15 -65 77 -65s77 24 77 65v73c0 41 -15 65 -77 65s-77 -24 -77 -65zM677 97c0 -67 -35 -107 -125 -107
s-125 40 -125 107v75c0 67 35 112 125 112s125 -45 125 -112v-75zM475 171v-73c0 -41 15 -65 77 -65s77 24 77 65v73c0 41 -15 65 -77 65s-77 -24 -77 -65z" />
    <glyph glyph-name="plus.onum" horiz-adv-x="536" 
d="M65 217v52h175v178h56v-178h175v-52h-175v-178h-56v178h-175z" />
    <glyph glyph-name="zero.onum" horiz-adv-x="560" 
d="M480 349v-188c0 -100 -53 -171 -200 -171s-200 71 -200 171v188c0 100 53 171 200 171s200 -71 200 -171zM138 345v-180c0 -82 33 -123 142 -123s142 41 142 123v180c0 82 -33 123 -142 123s-142 -41 -142 -123z" />
    <glyph glyph-name="one.onum" horiz-adv-x="341" 
d="M53 365l-28 48l169 97h52v-510h-58v441z" />
    <glyph glyph-name="two.onum" horiz-adv-x="493" 
d="M65 0v52c83 74 112 99 178 156c96 83 108 105 108 144v10c0 76 -15 106 -135 106c-47 0 -98 -10 -138 -22l-11 49c35 12 97 25 155 25c155 0 187 -57 187 -156v-9c0 -52 -16 -86 -120 -180c-57 -52 -78 -69 -143 -123h272v-52h-353z" />
    <glyph glyph-name="three.onum" horiz-adv-x="490" 
d="M60 -130l8 50c42 -10 98 -14 136 -14c115 0 148 30 148 109v44c0 76 -63 104 -140 104h-118v52h129c74 0 113 36 113 93v69c0 69 -42 91 -117 91c-45 0 -99 -7 -141 -15l-8 49c40 10 93 18 147 18c125 0 177 -51 177 -139v-75c0 -53 -25 -95 -84 -115
c58 -12 100 -60 100 -126v-54c0 -109 -62 -157 -208 -157c-42 0 -92 3 -142 16z" />
    <glyph glyph-name="four.onum" horiz-adv-x="555" 
d="M520 51h-99v-187h-58v187h-313v62l293 397h78v-409h99v-50zM106 101h257v349z" />
    <glyph glyph-name="five.onum" horiz-adv-x="495" 
d="M95 168v342h330v-52h-272v-239c47 -2 62 -3 122 -7c121 -8 155 -62 155 -150v-47c0 -103 -50 -161 -197 -161c-52 0 -111 6 -163 21l8 48c50 -11 107 -17 155 -17c103 0 139 29 139 113v35c0 69 -16 101 -107 106c-74 4 -98 5 -170 8z" />
    <glyph glyph-name="six.onum" horiz-adv-x="518" 
d="M138 430v-101c32 13 97 26 143 26c133 0 172 -56 172 -156v-50c0 -100 -47 -159 -184 -159s-189 59 -189 159v282c0 160 53 225 244 225c27 0 80 -4 114 -14l-7 -49c-26 6 -67 11 -97 11c-167 0 -196 -42 -196 -174zM279 303c-48 0 -105 -15 -141 -30v-126
c0 -82 50 -105 131 -105c94 0 126 29 126 105v55c0 70 -22 101 -116 101z" />
    <glyph glyph-name="seven.onum" horiz-adv-x="439" 
d="M30 458v52h374v-49l-280 -597l-48 23l269 571h-315z" />
    <glyph glyph-name="eight.onum" horiz-adv-x="564" 
d="M467 487c0 -69 -24 -115 -118 -157c102 -45 135 -90 135 -166v-20c0 -107 -60 -154 -202 -154s-202 47 -202 154v20c0 76 33 121 133 166c-92 42 -116 96 -116 157v13c0 87 43 156 185 156s185 -69 185 -156v-13zM426 167c0 67 -33 89 -144 135
c-111 -44 -144 -68 -144 -135v-20c0 -79 38 -105 144 -105s144 26 144 105v20zM155 483c0 -60 30 -85 127 -127c97 42 127 65 127 127v25c0 60 -30 96 -127 96s-127 -35 -127 -96v-25z" />
    <glyph glyph-name="nine.onum" horiz-adv-x="513" 
d="M375 80v101c-32 -13 -97 -26 -143 -26c-133 0 -172 56 -172 156v50c0 100 47 159 184 159s189 -59 189 -159v-282c0 -160 -53 -225 -244 -225c-27 0 -80 4 -114 14l7 49c26 -6 67 -11 97 -11c167 0 196 42 196 174zM234 207c48 0 105 15 141 30v126
c0 82 -50 105 -131 105c-94 0 -126 -29 -126 -105v-55c0 -70 22 -101 116 -101z" />
    <glyph glyph-name="less.onum" horiz-adv-x="550" 
d="M50 223v42l398 232l25 -42l-365 -211l367 -212l-25 -42z" />
    <glyph glyph-name="equal.onum" horiz-adv-x="509" 
d="M80 309v47h349v-47h-349zM80 137v47h349v-47h-349z" />
    <glyph glyph-name="greater.onum" horiz-adv-x="550" 
d="M500 265v-42l-400 -233l-25 42l367 212l-365 211l25 42z" />
    <glyph glyph-name="cent.onum" horiz-adv-x="483" 
d="M243 -70v106c-118 8 -163 60 -163 150v148c0 90 45 142 163 150v106h56v-106c36 -1 78 -6 109 -14l-8 -49c-39 9 -87 12 -123 12c-100 0 -139 -23 -139 -103v-140c0 -80 39 -103 139 -103c36 0 84 3 123 12l8 -49c-31 -8 -73 -13 -109 -15v-105h-56z" />
    <glyph glyph-name="sterling.onum" horiz-adv-x="504" 
d="M70 232v49h83c-28 43 -43 77 -43 122c0 75 50 117 172 117c45 0 104 -8 148 -21l-8 -47c-38 9 -101 16 -138 16c-78 0 -116 -14 -116 -66c0 -49 27 -89 48 -121h189l-3 -49h-161c5 -11 9 -28 9 -43c0 -46 -20 -91 -77 -137h266v-52h-352v50c47 28 106 78 106 137
c0 14 -1 30 -11 45h-112z" />
    <glyph glyph-name="section.onum" horiz-adv-x="524" 
d="M257 21l-45 -31c-100 130 -142 269 -142 420c0 80 43 110 126 110c41 0 105 -10 147 -24l-9 -45c-47 11 -107 19 -134 19c-56 0 -72 -14 -72 -64c0 -146 44 -268 129 -385zM290 334l45 31c91 -116 129 -251 129 -402c0 -80 -43 -110 -126 -110c-41 0 -105 10 -147 24
l9 45c47 -11 107 -19 134 -19c56 0 72 14 72 64c0 146 -44 278 -116 367z" />
    <glyph glyph-name="yen.onum" horiz-adv-x="507" 
d="M69 207v44h104l-143 259h61l162 -298l163 298h61l-144 -259h105v-44h-130l-26 -48v-38h156v-43h-156v-78h-58v78h-155v43h155v38l-27 48h-128z" />
    <glyph glyph-name="florin.onum" horiz-adv-x="463" 
d="M179 214h-92l5 50h91l13 147c7 80 55 109 132 109c28 0 61 -4 90 -14l-10 -45c-23 6 -55 9 -77 9c-53 0 -72 -15 -77 -69l-12 -137h136l-8 -50h-132l-27 -306c-7 -80 -46 -105 -116 -105c-22 0 -55 6 -75 13l10 45c20 -5 38 -8 58 -8c51 0 61 17 65 67z" />
    <glyph glyph-name="endash.onum" horiz-adv-x="496" 
d="M75 256v49h346v-49h-346z" />
    <glyph glyph-name="divide.onum" horiz-adv-x="566" 
d="M486 269v-52h-406v52h406zM252 44v76h62v-76h-62zM252 366v76h62v-76h-62z" />
    <glyph glyph-name="Euro.onum" horiz-adv-x="533" 
d="M55 307v40h80v22c0 98 54 151 196 151c41 0 95 -5 132 -15l-8 -49c-39 9 -87 12 -123 12c-100 0 -139 -23 -139 -103v-18h221v-40h-221v-97h221v-40h-221v-25c0 -80 39 -103 139 -103c36 0 84 3 123 12l8 -49c-37 -10 -91 -15 -132 -15c-142 0 -196 53 -196 151v29h-80
v40h80v97h-80z" />
    <glyph glyph-name="perthousand.onum" horiz-adv-x="1056" 
d="M226 10l233 510l43 -20l-233 -510zM305 338c0 -67 -35 -107 -125 -107s-125 40 -125 107v75c0 67 35 107 125 107s125 -40 125 -107v-75zM103 412v-73c0 -41 15 -65 77 -65s77 24 77 65v73c0 41 -15 65 -77 65s-77 -24 -77 -65zM677 97c0 -67 -35 -107 -125 -107
s-125 40 -125 107v75c0 67 35 112 125 112s125 -45 125 -112v-75zM475 171v-73c0 -41 15 -65 77 -65s77 24 77 65v73c0 41 -15 65 -77 65s-77 -24 -77 -65zM1001 97c0 -67 -35 -107 -125 -107s-125 40 -125 107v75c0 67 35 112 125 112s125 -45 125 -112v-75zM799 171v-73
c0 -41 15 -65 77 -65s77 24 77 65v73c0 41 -15 65 -77 65s-77 -24 -77 -65z" />
    <glyph glyph-name="minus.tnum" 
d="M131 220v49h262v-49h-262z" />
    <glyph glyph-name="multiply.tnum" 
d="M420 438l36 -36l-157 -158l157 -158l-36 -36l-158 157l-158 -157l-36 36l157 158l-157 158l36 36l158 -157z" />
    <glyph glyph-name="numbersign.tnum" 
d="M483 179h-88l-9 -179h-49l9 179h-168l-9 -179h-49l9 179h-90l3 45h90l11 213h-92l3 45h92l9 164h49l-9 -164h168l9 164h49l-9 -164h86l-3 -45h-86l-11 -213h88zM192 437l-11 -213h168l11 213h-168z" />
    <glyph glyph-name="dollar.tnum" 
d="M291 -109h-56v100c-51 2 -107 13 -150 30l9 47c53 -16 119 -26 168 -26c94 0 124 30 124 115c0 98 0 107 -143 146s-143 76 -143 187c0 104 38 159 155 165v100h56v-100c45 -2 85 -7 131 -19l-7 -49c-48 10 -106 17 -154 17c-95 0 -123 -21 -123 -116
c0 -102 2 -104 117 -139c158 -48 169 -66 169 -189c0 -115 -51 -162 -153 -169v-100z" />
    <glyph glyph-name="percent.tnum" horiz-adv-x="843" 
d="M579 658l-273 -668l-44 17l273 669zM340 544v-100c0 -82 -42 -132 -142 -132s-143 50 -143 132v100c0 82 43 132 143 132s142 -50 142 -132zM105 545v-102c0 -55 23 -87 93 -87s92 32 92 87v102c0 55 -22 87 -92 87s-93 -32 -93 -87zM783 222v-100
c0 -82 -42 -132 -142 -132s-143 50 -143 132v100c0 82 43 132 143 132s142 -50 142 -132zM548 223v-102c0 -55 23 -87 93 -87s92 32 92 87v102c0 55 -22 87 -92 87s-93 -32 -93 -87z" />
    <glyph glyph-name="plus.tnum" 
d="M59 217v52h175v178h56v-178h175v-52h-175v-178h-56v178h-175z" />
    <glyph glyph-name="zero.tnum" 
d="M462 485v-324c0 -100 -53 -171 -200 -171s-200 71 -200 171v324c0 100 53 171 200 171s200 -71 200 -171zM120 481v-316c0 -82 33 -123 142 -123s142 41 142 123v316c0 82 -33 123 -142 123s-142 -41 -142 -123z" />
    <glyph glyph-name="one.tnum" 
d="M75 0v51h165v538l-157 -55l-16 49l179 63h52v-595h163v-51h-386z" />
    <glyph glyph-name="two.tnum" 
d="M80 0v52c86 107 110 134 183 229c78 101 110 144 110 201v16c0 76 -15 106 -135 106c-47 0 -106 -12 -141 -23l-11 50c35 12 100 25 158 25c155 0 187 -57 187 -156v-15c0 -72 -27 -110 -122 -237c-63 -84 -87 -111 -155 -196h282v-52h-356z" />
    <glyph glyph-name="three.tnum" 
d="M75 10l8 50c47 -11 112 -18 150 -18c115 0 148 30 148 109v44c0 68 -40 104 -123 104h-135v52h139c70 0 103 34 103 86v76c0 67 -39 91 -126 91c-45 0 -105 -6 -147 -14l-7 50c43 10 111 16 152 16c129 0 186 -51 186 -139v-75c0 -59 -18 -95 -76 -116
c55 -12 92 -59 92 -127v-52c0 -109 -57 -157 -208 -157c-42 0 -106 7 -156 20z" />
    <glyph glyph-name="four.tnum" 
d="M491 176h-89v-176h-58v176h-299v58l265 412h92v-422h89v-48zM102 224h242v382z" />
    <glyph glyph-name="five.tnum" 
d="M109 309v337h332v-52h-274v-233c42 -1 64 -1 117 -2c121 -2 162 -63 162 -153v-55c0 -103 -47 -161 -197 -161c-52 0 -116 5 -165 22l10 48c49 -13 107 -18 155 -18c106 0 139 29 139 113v43c0 77 -24 107 -115 109c-55 1 -115 1 -164 2z" />
    <glyph glyph-name="six.tnum" 
d="M140 430v-96c32 13 97 26 143 26c133 0 172 -56 172 -156v-55c0 -100 -47 -159 -184 -159s-189 59 -189 159v282c0 160 53 225 244 225c27 0 80 -4 114 -14l-7 -49c-26 6 -67 11 -97 11c-167 0 -196 -42 -196 -174zM281 308c-48 0 -105 -15 -141 -30v-131
c0 -82 50 -105 131 -105c94 0 126 29 126 105v60c0 70 -22 101 -116 101z" />
    <glyph glyph-name="seven.tnum" 
d="M76 594v52h404v-49l-320 -597h-63l320 594h-341z" />
    <glyph glyph-name="eight.tnum" 
d="M447 487c0 -69 -24 -115 -118 -157c102 -45 135 -90 135 -166v-20c0 -107 -60 -154 -202 -154s-202 47 -202 154v20c0 76 33 121 133 166c-92 42 -116 96 -116 157v13c0 87 43 156 185 156s185 -69 185 -156v-13zM406 167c0 67 -33 89 -144 135
c-111 -44 -144 -68 -144 -135v-20c0 -79 38 -105 144 -105s144 26 144 105v20zM135 483c0 -60 30 -85 127 -127c97 42 127 65 127 127v25c0 60 -30 96 -127 96s-127 -35 -127 -96v-25z" />
    <glyph glyph-name="nine.tnum" 
d="M385 216v96c-32 -13 -97 -26 -143 -26c-133 0 -172 56 -172 156v55c0 100 50 159 184 159c137 0 189 -56 189 -159v-282c0 -160 -50 -225 -244 -225c-27 0 -80 5 -114 15l7 49c26 -6 67 -12 97 -12c172 0 196 42 196 174zM244 338c48 0 105 15 141 30v131
c0 82 -50 105 -131 105c-94 0 -126 -29 -126 -105v-60c0 -70 22 -101 116 -101z" />
    <glyph glyph-name="less.tnum" 
d="M50 223v42l398 232l25 -42l-365 -211l367 -212l-25 -42z" />
    <glyph glyph-name="equal.tnum" 
d="M88 309v47h349v-47h-349zM88 137v47h349v-47h-349z" />
    <glyph glyph-name="greater.tnum" 
d="M475 265v-42l-400 -233l-25 42l367 212l-365 211l25 42z" />
    <glyph glyph-name="cent.tnum" 
d="M269 -10v91c-114 9 -153 70 -153 167v171c0 96 39 158 153 167v91h56v-91c28 -2 60 -6 86 -13l-7 -48c-41 7 -75 10 -104 10c-91 0 -126 -27 -126 -114v-175c0 -87 35 -114 126 -114c29 0 63 3 104 10l7 -48c-26 -7 -58 -12 -86 -14v-90h-56z" />
    <glyph glyph-name="sterling.tnum" 
d="M73 307v50h93c-30 47 -49 102 -49 153c0 100 46 146 182 146c46 0 107 -9 146 -20l-9 -50c-37 10 -94 18 -135 18c-101 0 -126 -20 -126 -96c0 -52 22 -101 54 -151h199l-4 -50h-174c7 -14 11 -35 11 -58c0 -63 -27 -125 -95 -197h297v-52h-374v52c65 53 114 128 114 196
c0 21 -5 42 -13 59h-117z" />
    <glyph glyph-name="section.tnum" 
d="M257 16l-52 -16c-73 214 -134 415 -134 566c0 80 42 110 126 110c41 0 105 -10 147 -24l-9 -45c-47 11 -107 19 -134 19c-62 0 -72 -14 -72 -64c0 -146 64 -347 128 -546zM296 474l52 16c73 -214 134 -415 134 -566c0 -80 -42 -110 -126 -110c-41 0 -105 10 -147 24l9 45
c47 -11 107 -19 134 -19c62 0 72 14 72 64c0 146 -64 347 -128 546z" />
    <glyph glyph-name="yen.tnum" 
d="M68 309v47h100l-123 290h61l156 -382l158 382h61l-125 -290h101v-47h-121l-44 -104v-21h165v-45h-165v-139h-59v139h-165v45h165v21l-45 104h-120z" />
    <glyph glyph-name="florin.tnum" 
d="M228 377h-91l5 50h91l14 164c7 80 59 115 136 115c28 0 59 -5 87 -14l-10 -45c-31 6 -55 9 -77 9c-55 0 -74 -20 -79 -74l-13 -155h140l-11 -50h-134l-39 -456c-7 -80 -50 -118 -134 -118c-22 0 -55 6 -75 13l10 45c22 -5 43 -8 63 -8c57 0 74 21 78 71z" />
    <glyph glyph-name="endash.tnum" 
d="M89 256v49h346v-49h-346z" />
    <glyph glyph-name="divide.tnum" 
d="M465 269v-52h-406v52h406zM231 44v76h62v-76h-62zM231 366v76h62v-76h-62z" />
    <glyph glyph-name="Euro.tnum" 
d="M44 384v46h91v33c0 124 55 193 216 193c48 0 81 -4 128 -14l-7 -51c-38 8 -78 12 -116 12c-121 0 -162 -37 -162 -141v-32h205v-46h-205v-117h205v-46h-205v-37c0 -104 41 -141 162 -141c35 0 71 3 116 12l7 -51c-43 -11 -80 -14 -128 -14c-161 0 -216 69 -216 193v38
h-91v46h91v117h-91z" />
    <glyph glyph-name="perthousand.tnum" horiz-adv-x="1212" 
d="M579 658l-273 -668l-44 17l273 669zM340 544v-100c0 -82 -42 -132 -142 -132s-143 50 -143 132v100c0 82 43 132 143 132s142 -50 142 -132zM105 545v-102c0 -55 23 -87 93 -87s92 32 92 87v102c0 55 -22 87 -92 87s-93 -32 -93 -87zM783 222v-100
c0 -82 -42 -132 -142 -132s-143 50 -143 132v100c0 82 43 132 143 132s142 -50 142 -132zM548 223v-102c0 -55 23 -87 93 -87s92 32 92 87v102c0 55 -22 87 -92 87s-93 -32 -93 -87zM1152 222v-100c0 -82 -42 -132 -142 -132s-143 50 -143 132v100c0 82 43 132 143 132
s142 -50 142 -132zM917 223v-102c0 -55 23 -87 93 -87s92 32 92 87v102c0 55 -22 87 -92 87s-93 -32 -93 -87z" />
    <glyph glyph-name="minusonum.tnum" 
d="M131 220v49h262v-49h-262z" />
    <glyph glyph-name="multiplyonum.tnum" 
d="M420 438l36 -36l-157 -158l157 -158l-36 -36l-158 157l-158 -157l-36 36l157 158l-157 158l36 36l158 -157z" />
    <glyph glyph-name="numbersignonum.tnum" 
d="M471 123h-80l-6 -123h-49l6 123h-155l-6 -123h-49l6 123h-83l3 46h83l9 175h-82l3 46h81l7 120h49l-7 -120h155l7 120h49l-7 -120h82l-3 -46h-81l-9 -175h80zM199 344l-9 -175h155l9 175h-155z" />
    <glyph glyph-name="dollaronum.tnum" 
d="M236 -96v87c-45 2 -101 10 -141 25l8 47c48 -13 113 -21 163 -21c90 0 119 18 119 78c0 72 -7 77 -123 112c-145 44 -160 63 -160 161c0 85 47 121 151 126v87h56v-87c41 -1 93 -7 127 -16l-7 -50c-46 10 -109 15 -143 15c-99 0 -126 -15 -126 -83c0 -65 11 -68 109 -99
c156 -49 174 -64 174 -166c0 -81 -43 -124 -151 -129v-87h-56z" />
    <glyph glyph-name="percentonum.tnum" horiz-adv-x="732" 
d="M226 10l233 510l43 -20l-233 -510zM305 338c0 -67 -35 -107 -125 -107s-125 40 -125 107v75c0 67 35 107 125 107s125 -40 125 -107v-75zM103 412v-73c0 -41 15 -65 77 -65s77 24 77 65v73c0 41 -15 65 -77 65s-77 -24 -77 -65zM677 97c0 -67 -35 -107 -125 -107
s-125 40 -125 107v75c0 67 35 112 125 112s125 -45 125 -112v-75zM475 171v-73c0 -41 15 -65 77 -65s77 24 77 65v73c0 41 -15 65 -77 65s-77 -24 -77 -65z" />
    <glyph glyph-name="plusonum.tnum" 
d="M64 217v52h170v178h56v-178h170v-52h-170v-178h-56v178h-170z" />
    <glyph glyph-name="zeroonum.tnum" 
d="M463 349v-188c0 -100 -53 -171 -200 -171s-200 71 -200 171v188c0 100 53 171 200 171s200 -71 200 -171zM121 345v-180c0 -82 33 -123 142 -123s142 41 142 123v180c0 82 -33 123 -142 123s-142 -41 -142 -123z" />
    <glyph glyph-name="oneonum.tnum" 
d="M85 0v51h166v402l-167 -59l-16 49l189 67h52v-459h157v-51h-381z" />
    <glyph glyph-name="twoonum.tnum" 
d="M80 0v52c83 74 112 99 178 156c96 83 108 105 108 144v10c0 76 -15 106 -135 106c-47 0 -98 -10 -138 -22l-11 49c35 12 97 25 155 25c155 0 187 -57 187 -156v-9c0 -52 -16 -86 -120 -180c-57 -52 -78 -69 -143 -123h272v-52h-353z" />
    <glyph glyph-name="threeonum.tnum" 
d="M77 -130l8 50c43 -10 108 -14 146 -14c115 0 148 30 148 109v44c0 76 -63 104 -140 104h-128v52h139c74 0 113 36 113 93v69c0 69 -42 91 -117 91c-45 0 -109 -7 -151 -15l-8 49c40 10 103 18 157 18c125 0 177 -51 177 -139v-75c0 -53 -25 -95 -84 -115
c58 -12 100 -60 100 -126v-54c0 -109 -62 -157 -208 -157c-42 0 -102 3 -152 16z" />
    <glyph glyph-name="fouronum.tnum" 
d="M495 38h-99v-174h-58v174h-297v60l264 412h91v-422h99v-50zM96 88h242v382z" />
    <glyph glyph-name="fiveonum.tnum" 
d="M114 168v342h330v-52h-272v-239c47 -2 62 -3 122 -7c121 -8 155 -62 155 -150v-47c0 -103 -50 -161 -197 -161c-52 0 -111 6 -163 21l8 48c50 -11 107 -17 155 -17c103 0 139 29 139 113v35c0 69 -16 101 -107 106c-74 4 -98 5 -170 8z" />
    <glyph glyph-name="sixonum.tnum" 
d="M141 430v-101c32 13 97 26 143 26c133 0 172 -56 172 -156v-50c0 -100 -47 -159 -184 -159s-189 59 -189 159v282c0 160 53 225 244 225c27 0 80 -4 114 -14l-7 -49c-26 6 -67 11 -97 11c-167 0 -196 -42 -196 -174zM282 303c-48 0 -105 -15 -141 -30v-126
c0 -82 50 -105 131 -105c94 0 126 29 126 105v55c0 70 -22 101 -116 101z" />
    <glyph glyph-name="sevenonum.tnum" 
d="M64 458v52h402v-49l-310 -597l-48 27l297 567h-341z" />
    <glyph glyph-name="eightonum.tnum" 
d="M448 487c0 -69 -24 -115 -118 -157c102 -45 135 -90 135 -166v-20c0 -107 -60 -154 -202 -154s-202 47 -202 154v20c0 76 33 121 133 166c-92 42 -116 96 -116 157v13c0 87 43 156 185 156s185 -69 185 -156v-13zM407 167c0 67 -33 89 -144 135
c-111 -44 -144 -68 -144 -135v-20c0 -79 38 -105 144 -105s144 26 144 105v20zM136 483c0 -60 30 -85 127 -127c97 42 127 65 127 127v25c0 60 -30 96 -127 96s-127 -35 -127 -96v-25z" />
    <glyph glyph-name="nineonum.tnum" 
d="M384 80v101c-32 -13 -97 -26 -143 -26c-133 0 -172 56 -172 156v50c0 100 47 159 184 159s189 -59 189 -159v-282c0 -160 -53 -225 -244 -225c-27 0 -80 4 -114 14l7 49c26 -6 67 -11 97 -11c167 0 196 42 196 174zM243 207c48 0 105 15 141 30v126
c0 82 -50 105 -131 105c-94 0 -126 -29 -126 -105v-55c0 -70 22 -101 116 -101z" />
    <glyph glyph-name="lessonum.tnum" 
d="M50 223v42l378 232l25 -42l-346 -211l348 -212l-25 -42z" />
    <glyph glyph-name="equalonum.tnum" 
d="M88 309v47h349v-47h-349zM88 137v47h349v-47h-349z" />
    <glyph glyph-name="greateronum.tnum" 
d="M475 265v-42l-380 -233l-25 42l348 212l-346 211l25 42z" />
    <glyph glyph-name="centonum.tnum" 
d="M266 -70v106c-118 8 -163 60 -163 150v148c0 90 45 142 163 150v106h56v-106c36 -1 77 -6 108 -14l-7 -49c-39 9 -87 12 -123 12c-100 0 -139 -23 -139 -103v-140c0 -80 39 -103 139 -103c36 0 84 3 123 12l7 -49c-31 -8 -72 -13 -108 -15v-105h-56z" />
    <glyph glyph-name="sterlingonum.tnum" 
d="M79 232v49h83c-28 43 -43 77 -43 122c0 75 51 117 177 117c45 0 109 -8 153 -21l-8 -47c-38 9 -106 16 -143 16c-84 0 -121 -16 -121 -68c0 -49 27 -87 48 -119h199l-3 -49h-171c5 -11 9 -28 9 -43c0 -46 -21 -94 -87 -137h286v-52h-372v50c53 27 116 78 116 137
c0 14 -1 30 -11 45h-112z" />
    <glyph glyph-name="sectiononum.tnum" 
d="M265 21l-45 -31c-100 130 -142 269 -142 420c0 80 43 110 126 110c41 0 105 -10 147 -24l-9 -45c-47 11 -107 19 -134 19c-56 0 -72 -14 -72 -64c0 -146 44 -268 129 -385zM280 352l45 31c100 -130 142 -269 142 -420c0 -80 -43 -110 -126 -110c-41 0 -105 10 -147 24
l9 45c47 -11 107 -19 134 -19c56 0 72 14 72 64c0 146 -44 268 -129 385z" />
    <glyph glyph-name="yenonum.tnum" 
d="M78 207v44h104l-143 259h61l162 -298l163 298h61l-144 -259h105v-44h-130l-26 -48v-38h156v-43h-156v-78h-58v78h-155v43h155v38l-27 48h-128z" />
    <glyph glyph-name="florinonum.tnum" 
d="M208 214h-92l5 50h91l13 147c7 80 55 109 132 109c35 0 77 -6 106 -16l-10 -45c-34 8 -71 11 -93 11c-53 0 -72 -15 -77 -69l-12 -137h136l-8 -50h-132l-27 -306c-7 -80 -46 -105 -116 -105c-31 0 -70 8 -90 15l10 45c20 -5 45 -10 73 -10c51 0 61 17 65 67z" />
    <glyph glyph-name="endashonum.tnum" 
d="M89 238v47h346v-47h-346z" />
    <glyph glyph-name="divideonum.tnum" 
d="M455 269v-52h-386v52h386zM231 44v76h62v-76h-62zM231 366v76h62v-76h-62z" />
    <glyph glyph-name="Euroonum.tnum" 
d="M57 307v40h80v22c0 98 54 151 196 151c41 0 84 -5 121 -15l-8 -49c-36 8 -79 12 -112 12c-100 0 -139 -23 -139 -103v-18h208v-40h-208v-97h208v-40h-208v-25c0 -80 39 -103 139 -103c36 0 73 3 112 12l8 -49c-31 -10 -80 -15 -121 -15c-142 0 -196 53 -196 151v29h-80
v40h80v97h-80z" />
    <glyph glyph-name="perthousandonum.tnum" horiz-adv-x="1056" 
d="M226 10l233 510l43 -20l-233 -510zM305 338c0 -67 -35 -107 -125 -107s-125 40 -125 107v75c0 67 35 107 125 107s125 -40 125 -107v-75zM103 412v-73c0 -41 15 -65 77 -65s77 24 77 65v73c0 41 -15 65 -77 65s-77 -24 -77 -65zM677 97c0 -67 -35 -107 -125 -107
s-125 40 -125 107v75c0 67 35 112 125 112s125 -45 125 -112v-75zM475 171v-73c0 -41 15 -65 77 -65s77 24 77 65v73c0 41 -15 65 -77 65s-77 -24 -77 -65zM1001 97c0 -67 -35 -107 -125 -107s-125 40 -125 107v75c0 67 35 112 125 112s125 -45 125 -112v-75zM799 171v-73
c0 -41 15 -65 77 -65s77 24 77 65v73c0 41 -15 65 -77 65s-77 -24 -77 -65z" />
    <glyph glyph-name="minussmcp.tnum" 
d="M131 220v49h262v-49h-262z" />
    <glyph glyph-name="multiplysmcp.tnum" 
d="M420 438l36 -36l-157 -158l157 -158l-36 -36l-158 157l-158 -157l-36 36l157 158l-157 158l36 36l158 -157z" />
    <glyph glyph-name="numbersignsmcp.tnum" 
d="M471 128h-80l-6 -128h-49l6 128h-155l-6 -128h-49l6 128h-83l3 46h83l9 175h-82l3 46h81l7 125h49l-7 -125h155l7 125h49l-7 -125h82l-3 -46h-81l-9 -175h80zM199 349l-9 -175h155l9 175h-155z" />
    <glyph glyph-name="dollarsmcp.tnum" 
d="M230 -101v87c-45 2 -94 10 -134 25l8 47c48 -13 106 -21 156 -21c90 0 112 23 112 83c0 72 0 77 -116 112c-145 44 -153 63 -153 161c0 85 42 125 144 131v87h56v-87c41 -1 86 -7 120 -16l-7 -50c-46 10 -102 15 -136 15c-99 0 -119 -20 -119 -88c0 -65 4 -68 102 -99
c156 -49 167 -64 167 -166c0 -81 -36 -129 -144 -134v-87h-56z" />
    <glyph glyph-name="percentsmcp.tnum" horiz-adv-x="737" 
d="M226 10l238 520l43 -20l-238 -520zM305 343c0 -67 -35 -107 -125 -107s-125 40 -125 107v80c0 67 35 107 125 107s125 -40 125 -107v-80zM103 422v-78c0 -41 15 -65 77 -65s77 24 77 65v78c0 41 -15 65 -77 65s-77 -24 -77 -65zM677 97c0 -67 -35 -107 -125 -107
s-125 40 -125 107v80c0 67 35 107 125 107s125 -40 125 -107v-80zM475 176v-78c0 -41 15 -65 77 -65s77 24 77 65v78c0 41 -15 65 -77 65s-77 -24 -77 -65z" />
    <glyph glyph-name="plussmcp.tnum" 
d="M64 217v52h170v178h56v-178h170v-52h-170v-178h-56v178h-170z" />
    <glyph glyph-name="zerosmcp.tnum" 
d="M444 126c0 -79 -49 -136 -181 -136c-130 0 -181 57 -181 136v268c0 79 51 136 181 136c132 0 181 -57 181 -136v-268zM263 42c92 0 123 30 123 89v258c0 59 -31 89 -123 89s-123 -30 -123 -89v-258c0 -59 31 -89 123 -89z" />
    <glyph glyph-name="onesmcp.tnum" 
d="M85 0v50h165v412l-158 -48l-15 48l179 58h52v-470h160v-50h-383z" />
    <glyph glyph-name="twosmcp.tnum" 
d="M91 0v46c74 76 91 92 166 169c87 89 99 107 99 158v27c0 61 -17 78 -118 78c-35 0 -87 -6 -129 -17l-9 50c39 12 101 19 143 19c134 0 171 -41 171 -124v-35c0 -62 -8 -82 -108 -186c-78 -81 -87 -88 -131 -133h247v-52h-331z" />
    <glyph glyph-name="threesmcp.tnum" 
d="M98 7l7 48c43 -10 101 -14 133 -14c97 0 120 23 120 77v42c0 52 -29 77 -98 77h-125v51h128c62 0 81 28 81 65v55c0 55 -33 71 -106 71c-36 0 -84 -4 -126 -11l-6 49c37 8 98 13 133 13c116 0 163 -39 163 -114v-64c0 -43 -14 -71 -60 -89c48 -11 74 -47 74 -99v-44
c0 -87 -42 -130 -180 -130c-36 0 -96 5 -138 17z" />
    <glyph glyph-name="foursmcp.tnum" 
d="M470 127h-86v-127h-58v127h-281v53l266 340h73v-346h86v-47zM106 174h220v286z" />
    <glyph glyph-name="fivesmcp.tnum" 
d="M121 236v284h304v-52h-247v-179h113c109 0 142 -56 142 -127v-45c0 -83 -47 -127 -178 -127c-46 0 -111 6 -155 20l8 49c45 -11 106 -17 147 -17c86 0 120 18 120 81v37c0 47 -21 76 -92 76h-162z" />
    <glyph glyph-name="sixsmcp.tnum" 
d="M153 342v-69c32 11 82 21 125 21c118 0 158 -40 158 -126v-48c0 -80 -43 -130 -169 -130c-131 0 -172 49 -172 129v220c0 122 23 191 192 191c49 0 107 -9 141 -22l-9 -47c-35 10 -90 19 -132 19c-121 0 -134 -33 -134 -138zM276 242c-41 0 -90 -9 -123 -23v-102
c0 -61 37 -77 114 -77c83 0 111 23 111 77v52c0 56 -21 73 -102 73z" />
    <glyph glyph-name="sevensmcp.tnum" 
d="M92 468v52h371v-48l-264 -472h-62l265 468h-310z" />
    <glyph glyph-name="eightsmcp.tnum" 
d="M428 386c0 -46 -19 -87 -98 -120c83 -35 114 -70 114 -128v-25c0 -85 -55 -123 -182 -123s-181 38 -181 123v25c0 59 33 93 112 128c-76 32 -96 74 -96 120v20c0 69 40 124 165 124c127 0 166 -55 166 -124v-20zM387 139c0 49 -38 71 -125 102
c-88 -31 -124 -53 -124 -102v-23c0 -59 34 -77 124 -77s125 18 125 77v23zM153 383c0 -42 29 -63 109 -93c80 30 110 52 110 93v29c0 44 -28 71 -110 71c-81 0 -109 -27 -109 -71v-29z" />
    <glyph glyph-name="ninesmcp.tnum" 
d="M372 178v69c-32 -11 -82 -21 -125 -21c-118 0 -158 40 -158 126v48c0 80 43 130 169 130c131 0 172 -49 172 -129v-220c0 -122 -23 -191 -192 -191c-49 0 -107 9 -141 22l9 47c35 -10 90 -19 132 -19c121 0 134 33 134 138zM249 278c41 0 90 9 123 23v102
c0 61 -37 77 -114 77c-83 0 -111 -23 -111 -77v-52c0 -56 21 -73 102 -73z" />
    <glyph glyph-name="lesssmcp.tnum" 
d="M53 223v42l378 232l25 -42l-346 -211l348 -212l-25 -42z" />
    <glyph glyph-name="equalsmcp.tnum" 
d="M88 309v47h349v-47h-349zM88 137v47h349v-47h-349z" />
    <glyph glyph-name="greatersmcp.tnum" 
d="M472 265v-42l-380 -233l-25 42l348 212l-346 211l25 42z" />
    <glyph glyph-name="centsmcp.tnum" 
d="M263 -70v106c-118 8 -163 60 -163 150v148c0 90 45 142 163 150v106h56v-106c36 -1 77 -6 108 -14l-7 -49c-39 9 -87 12 -123 12c-100 0 -139 -23 -139 -103v-140c0 -80 39 -103 139 -103c36 0 84 3 123 12l7 -49c-31 -8 -72 -13 -108 -15v-105h-56z" />
    <glyph glyph-name="sterlingsmcp.tnum" 
d="M79 242v49h83c-28 43 -43 77 -43 122c0 75 51 117 177 117c45 0 109 -8 153 -21l-8 -47c-38 9 -106 16 -143 16c-84 0 -121 -16 -121 -68c0 -49 27 -87 48 -119h199l-3 -49h-171c7 -15 13 -32 13 -53c0 -46 -28 -97 -88 -137h283v-52h-372v50c53 27 120 78 120 137
c0 20 -4 32 -15 55h-112z" />
    <glyph glyph-name="sectionsmcp.tnum" 
d="M273 26l-46 -26c-80 127 -132 269 -132 420c0 80 42 110 126 110c41 0 105 -10 147 -24l-9 -45c-47 11 -107 19 -134 19c-62 0 -72 -14 -72 -64c0 -146 48 -265 120 -390zM276 358l46 26c80 -127 132 -269 132 -420c0 -80 -42 -110 -126 -110c-41 0 -105 10 -147 24l9 45
c47 -11 107 -19 134 -19c62 0 72 14 72 64c0 146 -48 265 -120 390z" />
    <glyph glyph-name="yensmcp.tnum" 
d="M78 207v44h104l-149 269h61l168 -308l168 308h61l-149 -269h105v-44h-130l-26 -48v-38h156v-44h-156v-77h-58v77h-155v44h155v38l-27 48h-128z" />
    <glyph glyph-name="florinsmcp.tnum" 
d="M204 224h-92l5 50h91l13 147c7 80 55 109 132 109c35 0 77 -6 106 -16l-10 -45c-34 8 -71 11 -93 11c-53 0 -72 -15 -77 -69l-12 -137h136l-8 -50h-132l-28 -316c-7 -80 -46 -105 -116 -105c-31 0 -70 8 -90 15l10 45c20 -5 45 -10 73 -10c51 0 61 17 65 67z" />
    <glyph glyph-name="endashsmcp.tnum" 
d="M89 238v47h346v-47h-346z" />
    <glyph glyph-name="dividesmcp.tnum" 
d="M455 269v-52h-386v52h386zM231 44v76h62v-76h-62zM231 366v76h62v-76h-62z" />
    <glyph glyph-name="Eurosmcp.tnum" 
d="M56 303v40h80v36c0 98 54 151 196 151c41 0 95 -5 132 -15l-8 -49c-39 9 -87 12 -123 12c-100 0 -139 -23 -139 -103v-32h221v-40h-221v-79h221v-40h-221v-39c0 -80 39 -103 139 -103c36 0 84 3 123 12l8 -49c-37 -10 -91 -15 -132 -15c-142 0 -196 53 -196 151v43h-80
v40h80v79h-80z" />
    <glyph glyph-name="perthousandsmcp.tnum" horiz-adv-x="1050" 
d="M226 10l238 520l43 -20l-238 -520zM305 343c0 -67 -35 -107 -125 -107s-125 40 -125 107v80c0 67 35 107 125 107s125 -40 125 -107v-80zM103 422v-78c0 -41 15 -65 77 -65s77 24 77 65v78c0 41 -15 65 -77 65s-77 -24 -77 -65zM677 97c0 -67 -35 -107 -125 -107
s-125 40 -125 107v80c0 67 35 107 125 107s125 -40 125 -107v-80zM475 176v-78c0 -41 15 -65 77 -65s77 24 77 65v78c0 41 -15 65 -77 65s-77 -24 -77 -65zM990 97c0 -67 -35 -107 -125 -107s-125 40 -125 107v80c0 67 35 107 125 107s125 -40 125 -107v-80zM788 176v-78
c0 -41 15 -65 77 -65s77 24 77 65v78c0 41 -15 65 -77 65s-77 -24 -77 -65z" />
    <glyph glyph-name="minus.smcp" horiz-adv-x="392" 
d="M65 220v49h262v-49h-262z" />
    <glyph glyph-name="multiply.smcp" horiz-adv-x="548" 
d="M432 438l36 -36l-157 -158l157 -158l-36 -36l-158 157l-158 -157l-36 36l157 158l-157 158l36 36l158 -157z" />
    <glyph glyph-name="exclam.smcp" horiz-adv-x="262" 
d="M148 171h-34l-12 98v251h58v-251zM100 0v86h62v-86h-62z" />
    <glyph glyph-name="numbersign.smcp" horiz-adv-x="662" 
d="M581 128h-120l-6 -128h-51l6 128h-181l-6 -128h-51l6 128h-113l3 47h113l9 173h-112l3 47h111l7 125h51l-7 -125h181l7 125h51l-7 -125h122l-3 -47h-121l-9 -173h120zM241 348l-9 -173h181l9 173h-181z" />
    <glyph glyph-name="dollar.smcp" horiz-adv-x="473" 
d="M203 -96v87c-45 2 -93 10 -133 25l9 48c48 -14 104 -22 154 -22c101 0 112 16 112 83c0 75 0 77 -116 112c-150 45 -153 63 -153 161c0 93 29 127 144 131v87h56v-87c41 -2 86 -8 120 -17l-7 -50c-46 10 -102 16 -136 16c-113 0 -119 -8 -119 -88c0 -65 0 -69 102 -99
c159 -47 167 -62 167 -166c0 -86 -27 -129 -144 -134v-87h-56z" />
    <glyph glyph-name="percent.smcp" horiz-adv-x="737" 
d="M226 10l238 520l43 -20l-238 -520zM305 343c0 -67 -35 -107 -125 -107s-125 40 -125 107v80c0 67 35 107 125 107s125 -40 125 -107v-80zM103 422v-78c0 -41 15 -65 77 -65s77 24 77 65v78c0 41 -15 65 -77 65s-77 -24 -77 -65zM677 97c0 -67 -35 -107 -125 -107
s-125 40 -125 107v80c0 67 35 107 125 107s125 -40 125 -107v-80zM475 176v-78c0 -41 15 -65 77 -65s77 24 77 65v78c0 41 -15 65 -77 65s-77 -24 -77 -65z" />
    <glyph glyph-name="ampersand.smcp" horiz-adv-x="570" 
d="M530 237h-86v-225c-52 -14 -115 -22 -169 -22c-133 0 -190 37 -190 126v50c0 52 27 84 70 98c-42 19 -56 44 -56 88v63c0 78 57 115 175 115c54 0 111 -7 157 -18l-5 -46c-50 9 -112 14 -153 14c-81 0 -116 -17 -116 -72v-59c0 -39 24 -62 86 -62h287v-50zM277 40
c39 0 75 4 111 11v186h-145c-66 0 -100 -25 -100 -76v-41c0 -59 37 -80 134 -80z" />
    <glyph glyph-name="plus.smcp" horiz-adv-x="536" 
d="M65 217v52h175v178h56v-178h175v-52h-175v-178h-56v178h-175z" />
    <glyph glyph-name="zero.smcp" horiz-adv-x="526" 
d="M451 126c0 -79 -56 -136 -188 -136c-130 0 -188 57 -188 136v268c0 79 58 136 188 136c132 0 188 -57 188 -136v-268zM263 42c92 0 130 30 130 89v258c0 59 -38 89 -130 89s-130 -30 -130 -89v-258c0 -59 38 -89 130 -89z" />
    <glyph glyph-name="one.smcp" horiz-adv-x="323" 
d="M41 393l-24 47l159 80h52v-520h-58v456z" />
    <glyph glyph-name="two.smcp" horiz-adv-x="457" 
d="M60 0v46c71 74 90 94 161 169c86 90 95 107 95 158v27c0 61 -13 78 -114 78c-35 0 -87 -6 -129 -17l-10 50c39 12 102 19 144 19c134 0 167 -41 167 -124v-35c0 -62 -5 -81 -104 -186c-77 -82 -88 -94 -126 -133h238v-52h-322z" />
    <glyph glyph-name="three.smcp" horiz-adv-x="442" 
d="M55 7l8 46c44 -10 90 -14 129 -14c95 0 122 18 122 77v52c0 47 -35 69 -94 69h-120v48h121c60 0 83 25 83 66v65c0 49 -28 67 -101 67c-38 0 -90 -6 -129 -14l-6 46c42 9 92 15 136 15c116 0 158 -41 158 -116v-59c0 -43 -12 -73 -58 -92c44 -11 68 -41 68 -92v-59
c0 -85 -49 -122 -177 -122c-38 0 -94 5 -140 17z" />
    <glyph glyph-name="four.smcp" horiz-adv-x="485" 
d="M450 127h-86v-127h-58v127h-271v53l256 340h73v-346h86v-47zM96 174h210v286z" />
    <glyph glyph-name="five.smcp" horiz-adv-x="471" 
d="M89 236v284h304v-52h-247v-179h113c109 0 142 -56 142 -127v-45c0 -83 -47 -127 -178 -127c-46 0 -104 6 -148 20l8 49c45 -11 99 -17 140 -17c86 0 120 18 120 81v37c0 47 -21 76 -92 76h-162z" />
    <glyph glyph-name="six.smcp" horiz-adv-x="476" 
d="M133 351v-78c32 11 82 21 125 21c118 0 158 -40 158 -126v-48c0 -80 -43 -130 -169 -130c-131 0 -172 46 -172 126v233c0 122 30 181 199 181c40 0 88 -5 130 -19l-7 -47c-43 12 -90 16 -123 16c-121 0 -141 -27 -141 -129zM256 242c-41 0 -90 -9 -123 -23v-102
c0 -61 37 -77 114 -77c83 0 111 23 111 77v52c0 56 -21 73 -102 73z" />
    <glyph glyph-name="seven.smcp" horiz-adv-x="428" 
d="M45 468v52h353v-48l-254 -472h-62l253 468h-290z" />
    <glyph glyph-name="eight.smcp" horiz-adv-x="513" 
d="M422 386c0 -46 -19 -87 -98 -120c83 -35 114 -70 114 -128v-25c0 -85 -55 -123 -182 -123c-131 0 -181 38 -181 123v25c0 59 33 93 112 128c-76 32 -96 74 -96 120v20c0 69 40 124 165 124c127 0 166 -55 166 -124v-20zM381 139c0 49 -38 71 -125 102
c-88 -31 -124 -53 -124 -102v-23c0 -59 34 -77 124 -77s125 18 125 77v23zM147 383c0 -42 29 -63 109 -93c80 30 110 52 110 93v29c0 44 -28 71 -110 71c-81 0 -109 -27 -109 -71v-29z" />
    <glyph glyph-name="nine.smcp" horiz-adv-x="476" 
d="M343 169v78c-32 -11 -82 -21 -125 -21c-118 0 -158 40 -158 126v47c0 80 43 131 169 131c131 0 172 -51 172 -129v-231c0 -122 -30 -180 -199 -180c-40 0 -92 8 -134 22l9 47c42 -12 89 -19 125 -19c121 0 141 27 141 129zM220 278c41 0 90 9 123 23v102
c0 61 -37 77 -114 77c-83 0 -111 -23 -111 -77v-52c0 -56 21 -73 102 -73z" />
    <glyph glyph-name="less.smcp" horiz-adv-x="550" 
d="M50 223v42l398 232l25 -42l-365 -211l367 -212l-25 -42z" />
    <glyph glyph-name="equal.smcp" horiz-adv-x="509" 
d="M80 309v47h349v-47h-349zM80 137v47h349v-47h-349z" />
    <glyph glyph-name="greater.smcp" horiz-adv-x="550" 
d="M500 265v-42l-400 -233l-25 42l367 212l-365 211l25 42z" />
    <glyph glyph-name="question.smcp" horiz-adv-x="431" 
d="M176 162l-30 45c39 27 51 34 99 67c56 38 58 45 58 114c0 75 -9 93 -106 93c-30 0 -83 -5 -124 -13l-8 48c37 8 95 14 134 14c139 0 162 -41 162 -140c0 -88 -5 -104 -70 -150c-41 -29 -65 -45 -115 -78zM146 0v86h62v-86h-62z" />
    <glyph glyph-name="at.smcp" horiz-adv-x="671" 
d="M232 227l16 87c11 51 36 72 103 72c33 0 77 -10 106 -23l-32 -160c9 -4 20 -6 30 -6c76 0 104 51 104 114c0 104 -82 173 -213 173c-136 0 -229 -89 -229 -224c0 -128 75 -224 255 -224c62 0 116 11 175 31l12 -39c-52 -25 -124 -38 -187 -38c-197 0 -307 109 -307 270
s116 270 283 270c174 0 263 -98 263 -218c0 -91 -52 -156 -156 -156c-30 0 -54 9 -69 23c-24 -11 -54 -21 -90 -21c-52 0 -70 31 -64 69zM379 220l22 118c-19 5 -39 8 -55 8c-33 0 -44 -9 -49 -34c-6 -32 -11 -56 -17 -89c-3 -16 4 -24 27 -24c21 0 53 10 72 21z" />
    <glyph glyph-name="a.smcp" horiz-adv-x="570" 
d="M466 0l-55 134h-254l-53 -134h-59l200 520h80l200 -520h-59zM285 481l-110 -299h219z" />
    <glyph glyph-name="b.smcp" horiz-adv-x="517" 
d="M327 0h-232v520h223c80 0 125 -34 125 -105v-61c0 -38 -11 -63 -53 -82c42 -10 72 -45 72 -97v-61c0 -74 -56 -114 -135 -114zM404 117v57c0 41 -27 68 -91 68h-160v-191h172c56 0 79 28 79 66zM385 360v53c0 38 -22 56 -68 56h-164v-177h156c58 0 76 22 76 68z" />
    <glyph glyph-name="c.smcp" horiz-adv-x="476" 
d="M136 145c0 -80 39 -103 139 -103c36 0 93 4 133 12l8 -49c-44 -10 -101 -15 -142 -15c-142 0 -196 53 -196 151v238c0 98 54 151 196 151c41 0 95 -5 142 -15l-8 -49c-40 8 -97 12 -133 12c-100 0 -139 -23 -139 -103v-230z" />
    <glyph glyph-name="d.smcp" horiz-adv-x="541" 
d="M466 155c0 -88 -37 -155 -179 -155h-192v520h192c142 0 179 -67 179 -155v-210zM408 363c0 73 -29 105 -123 105h-132v-416h132c94 0 123 32 123 105v206z" />
    <glyph glyph-name="e.smcp" horiz-adv-x="503" 
d="M95 0v520h332v-52h-274v-169h255v-52h-255v-195h275v-52h-333z" />
    <glyph glyph-name="f.smcp" horiz-adv-x="486" 
d="M153 0h-58v520h336v-52h-278v-187h258v-52h-258v-229z" />
    <glyph glyph-name="g.smcp" horiz-adv-x="531" 
d="M136 373v-228c0 -75 26 -103 132 -103c36 0 86 3 120 11v181h58v-221c-54 -16 -123 -23 -179 -23c-143 0 -189 52 -189 153v233c0 103 50 154 196 154c49 0 115 -6 161 -18l-7 -50c-49 10 -107 16 -154 16c-109 0 -138 -28 -138 -105z" />
    <glyph glyph-name="h.smcp" horiz-adv-x="583" 
d="M488 0h-58v245h-277v-245h-58v520h58v-223h277v223h58v-520z" />
    <glyph glyph-name="i.smcp" horiz-adv-x="258" 
d="M158 520v-520h-58v520h58z" />
    <glyph glyph-name="j.smcp" horiz-adv-x="243" 
d="M95 520h58v-511c0 -64 -1 -66 -108 -159l-35 39c85 74 85 75 85 115v516z" />
    <glyph glyph-name="k.smcp" 
d="M469 520l-233 -255l249 -265h-73l-244 265l229 255h72zM153 520v-520h-58v520h58z" />
    <glyph glyph-name="l.smcp" horiz-adv-x="463" 
d="M153 520v-468h260v-52h-318v520h58z" />
    <glyph glyph-name="m.smcp" horiz-adv-x="715" 
d="M159 453l-13 -453h-58l18 520h79l173 -415l173 415h78l18 -520h-57l-13 453l-158 -387h-82z" />
    <glyph glyph-name="n.smcp" horiz-adv-x="598" 
d="M425 0l-274 460v-460h-56v520h78l274 -460v460h56v-520h-78z" />
    <glyph glyph-name="o.smcp" horiz-adv-x="568" 
d="M284 -10c-152 0 -206 67 -206 156v228c0 89 54 156 206 156s206 -67 206 -156v-228c0 -89 -54 -156 -206 -156zM432 371c0 70 -40 107 -148 107s-148 -37 -148 -107v-222c0 -70 40 -107 148 -107s148 37 148 107v222z" />
    <glyph glyph-name="p.smcp" horiz-adv-x="502" 
d="M299 185h-146v-185h-58v520h204c117 0 158 -49 158 -123v-89c0 -74 -41 -123 -158 -123zM299 237c74 0 100 21 100 74v83c0 53 -26 74 -100 74h-146v-231h146z" />
    <glyph glyph-name="q.smcp" horiz-adv-x="568" 
d="M334 -146l-57 136c-147 2 -199 68 -199 156v228c0 89 54 156 206 156s206 -67 206 -156v-228c0 -78 -42 -140 -155 -153l50 -119zM432 371c0 70 -40 107 -148 107s-148 -37 -148 -107v-222c0 -70 40 -107 148 -107s148 37 148 107v222z" />
    <glyph glyph-name="r.smcp" horiz-adv-x="567" 
d="M454 0l-130 187h-10h-161v-187h-58v520h219c117 0 158 -49 158 -123v-87c0 -56 -24 -98 -86 -115l136 -195h-68zM314 239c74 0 100 21 100 74v81c0 53 -26 74 -100 74h-161v-229h161z" />
    <glyph glyph-name="s.smcp" horiz-adv-x="500" 
d="M430 125c0 -91 -38 -135 -179 -135c-52 0 -126 8 -176 26l9 48c54 -15 118 -22 168 -22c96 0 120 17 120 83c0 72 2 74 -127 112c-155 46 -164 64 -164 159c0 102 45 134 186 134c51 0 107 -5 157 -18l-8 -50c-48 11 -103 16 -147 16c-116 0 -130 -11 -130 -84
c0 -67 0 -69 128 -108c156 -48 163 -61 163 -161z" />
    <glyph glyph-name="t.smcp" horiz-adv-x="478" 
d="M210 0v468h-180v52h418v-52h-180v-468h-58z" />
    <glyph glyph-name="u.smcp" horiz-adv-x="586" 
d="M438 520h58v-373c0 -89 -56 -157 -203 -157s-203 68 -203 157v373h58v-371c0 -68 40 -107 145 -107s145 39 145 107v371z" />
    <glyph glyph-name="v.smcp" horiz-adv-x="502" 
d="M214 0l-195 520h57l175 -470l175 470h57l-195 -520h-74z" />
    <glyph glyph-name="w.smcp" horiz-adv-x="778" 
d="M428 520l127 -472l142 472h56l-159 -520h-79l-126 473l-126 -473h-79l-159 520h56l142 -472l127 472h78z" />
    <glyph glyph-name="x.smcp" horiz-adv-x="541" 
d="M45 0l193 264l-187 256h62l157 -214l157 214h64l-188 -256l193 -264h-63l-163 221l-163 -221h-62z" />
    <glyph glyph-name="y.smcp" horiz-adv-x="498" 
d="M249 212l168 308h61l-200 -361v-159h-58v159l-200 361h61z" />
    <glyph glyph-name="z.smcp" horiz-adv-x="533" 
d="M454 473l-306 -423h310v-50h-378v47l306 423h-304v50h372v-47z" />
    <glyph glyph-name="cent.smcp" horiz-adv-x="450" 
d="M228 -70v106c-118 8 -163 60 -163 150v148c0 90 45 142 163 150v106h56v-106c36 -1 75 -6 106 -14l-5 -49c-39 9 -87 12 -123 12c-100 0 -139 -23 -139 -103v-140c0 -80 39 -103 139 -103c36 0 84 3 123 12l5 -49c-31 -8 -70 -13 -106 -15v-105h-56z" />
    <glyph glyph-name="sterling.smcp" horiz-adv-x="519" 
d="M75 232v49h83c-28 43 -43 87 -43 132c0 75 50 117 172 117c45 0 104 -8 148 -21l-8 -47c-38 9 -101 16 -138 16c-78 0 -116 -14 -116 -66c0 -49 27 -99 48 -131h189l-3 -49h-161c5 -11 9 -28 9 -43c0 -46 -20 -91 -77 -137h266v-52h-352v50c47 28 106 78 106 137
c0 14 -1 30 -11 45h-112z" />
    <glyph glyph-name="section.smcp" horiz-adv-x="530" 
d="M264 21l-45 -31c-100 130 -149 279 -149 430c0 80 43 110 126 110c41 0 105 -10 147 -24l-9 -45c-47 11 -107 19 -134 19c-56 0 -72 -14 -72 -64c0 -146 51 -278 136 -395zM281 352l45 31c100 -130 149 -279 149 -430c0 -80 -43 -110 -126 -110c-41 0 -105 10 -147 24
l9 45c47 -11 107 -19 134 -19c56 0 72 14 72 64c0 146 -51 278 -136 395z" />
    <glyph glyph-name="paragraph.smcp" horiz-adv-x="487" 
d="M331 520h56v-578c0 -37 -1 -42 -111 -149l-34 38c84 84 89 91 89 109v580zM60 318c0 115 87 202 202 202v-403c-115 0 -202 87 -202 201z" />
    <glyph glyph-name="germandbls.smcp" horiz-adv-x="1000" 
d="M430 125c0 -91 -38 -135 -179 -135c-52 0 -126 8 -176 26l9 48c54 -15 118 -22 168 -22c96 0 120 17 120 83c0 72 2 74 -127 112c-155 46 -164 64 -164 159c0 102 45 134 186 134c51 0 107 -5 157 -18l-8 -50c-48 11 -103 16 -147 16c-116 0 -130 -11 -130 -84
c0 -67 0 -69 128 -108c156 -48 163 -61 163 -161zM930 125c0 -91 -38 -135 -179 -135c-52 0 -126 8 -176 26l9 48c54 -15 118 -22 168 -22c96 0 120 17 120 83c0 72 2 74 -127 112c-155 46 -164 64 -164 159c0 102 45 134 186 134c51 0 107 -5 157 -18l-8 -50
c-48 11 -103 16 -147 16c-116 0 -130 -11 -130 -84c0 -67 0 -69 128 -108c156 -48 163 -61 163 -161z" />
    <glyph glyph-name="yen.smcp" horiz-adv-x="508" 
d="M70 207v44h104l-149 269h61l168 -308l168 308h61l-149 -269h105v-44h-130l-26 -48v-38h156v-44h-156v-77h-58v77h-155v44h155v38l-27 48h-128z" />
    <glyph glyph-name="ae.smcp" horiz-adv-x="759" 
d="M466 0l-55 134h-254l-53 -134h-59l200 520h438v-52h-338l65 -169h254v-52h-234l75 -195h179v-52h-218zM285 481l-110 -299h219z" />
    <glyph glyph-name="oslash.smcp" horiz-adv-x="568" 
d="M284 -10c-54 0 -96 8 -127 23l-44 -73l-35 21l45 74c-32 28 -45 67 -45 111v228c0 89 54 156 206 156c54 0 95 -8 126 -23l45 73l35 -22l-45 -74c31 -28 45 -66 45 -110v-228c0 -89 -54 -156 -206 -156zM136 149c0 -26 5 -47 17 -64l229 376c-23 11 -55 17 -98 17
c-108 0 -148 -37 -148 -107v-222zM432 371c0 25 -6 46 -18 63l-229 -375c23 -12 56 -17 99 -17c108 0 148 37 148 107v222z" />
    <glyph glyph-name="questiondown.smcp" horiz-adv-x="431" 
d="M255 358l30 -45c-39 -27 -51 -34 -99 -67c-56 -38 -58 -45 -58 -114c0 -75 9 -93 106 -93c30 0 83 5 124 13l8 -48c-37 -8 -95 -14 -134 -14c-139 0 -162 41 -162 140c0 88 5 104 70 150c41 29 65 45 115 78zM295 520v-86h-62v86h62z" />
    <glyph glyph-name="exclamdown.smcp" horiz-adv-x="262" 
d="M114 349h34l12 -98v-251h-58v251zM100 434v86h62v-86h-62z" />
    <glyph glyph-name="florin.smcp" horiz-adv-x="485" 
d="M183 224h-92l5 50h91l13 147c7 80 55 109 132 109c35 0 74 -6 103 -16l-7 -45c-34 8 -71 11 -93 11c-56 0 -72 -15 -77 -69l-12 -137h136l-8 -50h-132l-28 -316c-7 -80 -46 -105 -116 -105c-31 0 -68 8 -88 15l8 45c20 -5 45 -10 73 -10c51 0 61 17 65 67z" />
    <glyph glyph-name="oe.smcp" horiz-adv-x="813" 
d="M284 0c-152 0 -206 67 -206 156v208c0 89 54 156 206 156h453v-52h-274v-169h255v-52h-255v-195h275v-52h-454zM284 468c-108 0 -148 -37 -148 -107v-202c0 -70 40 -107 148 -107h121v416h-121z" />
    <glyph glyph-name="endash.smcp" horiz-adv-x="496" 
d="M75 256v49h346v-49h-346z" />
    <glyph glyph-name="divide.smcp" horiz-adv-x="566" 
d="M486 269v-52h-406v52h406zM252 44v76h62v-76h-62zM252 366v76h62v-76h-62z" />
    <glyph glyph-name="Euro.smcp" horiz-adv-x="511" 
d="M125 308h-80v40h80v39c0 98 42 143 187 143c41 0 100 -7 139 -20l-6 -48c-45 11 -95 17 -131 17c-105 0 -131 -19 -131 -99v-32h221v-40h-221v-96h221v-40h-221v-32c0 -80 26 -99 131 -99c36 0 86 6 131 17l6 -48c-39 -13 -98 -20 -139 -20c-145 0 -187 45 -187 143v39
h-80v40h80v96z" />
    <glyph glyph-name="fi.smcp" horiz-adv-x="744" 
d="M153 0h-58v520h336v-52h-278v-187h258v-52h-258v-229zM644 520v-520h-58v520h58z" />
    <glyph glyph-name="fl.smcp" horiz-adv-x="949" 
d="M153 0h-58v520h336v-52h-278v-187h258v-52h-258v-229zM639 520v-468h260v-52h-318v520h58z" />
    <glyph glyph-name="perthousand.smcp" horiz-adv-x="1050" 
d="M226 10l238 520l43 -20l-238 -520zM305 343c0 -67 -35 -107 -125 -107s-125 40 -125 107v80c0 67 35 107 125 107s125 -40 125 -107v-80zM103 422v-78c0 -41 15 -65 77 -65s77 24 77 65v78c0 41 -15 65 -77 65s-77 -24 -77 -65zM677 97c0 -67 -35 -107 -125 -107
s-125 40 -125 107v80c0 67 35 107 125 107s125 -40 125 -107v-80zM475 176v-78c0 -41 15 -65 77 -65s77 24 77 65v78c0 41 -15 65 -77 65s-77 -24 -77 -65zM990 97c0 -67 -35 -107 -125 -107s-125 40 -125 107v80c0 67 35 107 125 107s125 -40 125 -107v-80zM788 176v-78
c0 -41 15 -65 77 -65s77 24 77 65v78c0 41 -15 65 -77 65s-77 -24 -77 -65z" />
    <glyph glyph-name="dotlessi.smcp" horiz-adv-x="258" 
d="M158 520v-520h-58v520h58z" />
    <glyph glyph-name="acute.smcp" horiz-adv-x="301" 
d="M102 573l-27 41c40 24 80 49 122 80l29 -44c-38 -27 -82 -55 -124 -77z" />
    <glyph glyph-name="breve.smcp" horiz-adv-x="386" 
d="M283 671l33 -30c-21 -31 -62 -68 -123 -68s-102 37 -123 68l33 30c22 -30 53 -53 90 -53s68 23 90 53z" />
    <glyph glyph-name="caron.smcp" horiz-adv-x="397" 
d="M70 650l22 39c42 -22 74 -42 107 -62c34 20 63 39 107 62l21 -39c-49 -28 -86 -54 -128 -84c-46 32 -87 59 -129 84z" />
    <glyph glyph-name="cedilla.smcp" horiz-adv-x="313" 
d="M243 -130c0 -44 -33 -77 -95 -77c-28 0 -55 6 -78 14l9 35c18 -5 43 -9 61 -9c41 0 57 12 57 35c0 19 -16 31 -47 31c-18 0 -44 -3 -58 -6l23 107h42l-15 -70c9 2 20 3 28 3c40 0 73 -20 73 -63z" />
    <glyph glyph-name="circumflex.smcp" horiz-adv-x="389" 
d="M92 566l-22 39c42 26 79 50 125 82c42 -30 73 -52 124 -82l-21 -39c-47 25 -69 39 -103 60c-33 -20 -61 -38 -103 -60z" />
    <glyph glyph-name="commaaccent.smcp" horiz-adv-x="276" 
d="M114 -143v86h62v-86l-48 -108l-28 12l36 96h-22z" />
    <glyph glyph-name="dieresis.smcp" horiz-adv-x="392" 
d="M80 586v60h66v-60h-66zM246 586v60h66v-60h-66z" />
    <glyph glyph-name="dotaccent.smcp" horiz-adv-x="210" 
d="M128 595h-58v107h58v-107z" />
    <glyph glyph-name="grave.smcp" horiz-adv-x="301" 
d="M226 614l-27 -41c-42 22 -86 50 -124 77l29 44c42 -31 82 -56 122 -80z" />
    <glyph glyph-name="hungarumlaut.smcp" horiz-adv-x="442" 
d="M102 565l-32 37c37 30 79 66 119 102l34 -40c-38 -36 -83 -71 -121 -99zM251 565l-32 38c36 30 79 65 119 102l34 -40c-39 -36 -83 -71 -121 -100z" />
    <glyph glyph-name="macron.smcp" horiz-adv-x="376" 
d="M70 587v48h236v-48h-236z" />
    <glyph glyph-name="ogonek.smcp" horiz-adv-x="289" 
d="M219 -192c-18 -10 -38 -15 -64 -15c-44 0 -85 23 -85 76s38 100 91 131h58c-55 -38 -98 -76 -98 -127c0 -20 10 -36 41 -36c16 0 29 2 45 8z" />
    <glyph glyph-name="ring.smcp" horiz-adv-x="266" 
d="M196 615c0 -35 -22 -62 -63 -62s-63 27 -63 62c0 36 22 61 63 61s63 -25 63 -61zM162 615c0 20 -9 32 -29 32s-30 -12 -30 -32c0 -19 10 -32 30 -32s29 13 29 32z" />
    <glyph glyph-name="tilde.smcp" horiz-adv-x="410" 
d="M206 590c-22 10 -37 18 -56 18c-22 0 -37 -11 -54 -28l-26 29c18 27 50 49 82 49c19 0 32 -6 54 -16c27 -12 41 -18 57 -18c17 0 32 7 48 25l29 -26c-17 -28 -45 -49 -77 -49c-17 0 -31 4 -57 16z" />
    <glyph glyph-name="aacute.smcp" horiz-adv-x="570" 
d="M466 0l-55 134h-254l-53 -134h-59l200 520h80l200 -520h-59zM285 481l-110 -299h219zM283 573l-27 41c40 24 80 49 122 80l29 -44c-38 -27 -82 -55 -124 -77z" />
    <glyph glyph-name="aeacute.smcp" horiz-adv-x="759" 
d="M466 0l-55 134h-254l-53 -134h-59l200 520h438v-52h-338l65 -169h254v-52h-234l75 -195h179v-52h-218zM285 481l-110 -299h219zM325 573l-27 41c40 24 80 49 122 80l29 -44c-38 -27 -82 -55 -124 -77z" />
    <glyph glyph-name="abreve.smcp" horiz-adv-x="570" 
d="M466 0l-55 134h-254l-53 -134h-59l200 520h80l200 -520h-59zM285 481l-110 -299h219zM375 671l33 -30c-21 -31 -62 -68 -123 -68s-102 37 -123 68l33 30c22 -30 53 -53 90 -53s68 23 90 53z" />
    <glyph glyph-name="acircumflex.smcp" horiz-adv-x="570" 
d="M466 0l-55 134h-254l-53 -134h-59l200 520h80l200 -520h-59zM285 481l-110 -299h219zM183 566l-22 39c42 26 79 50 125 82c42 -30 73 -52 124 -82l-21 -39c-47 25 -69 39 -103 60c-33 -20 -61 -38 -103 -60z" />
    <glyph glyph-name="adieresis.smcp" horiz-adv-x="570" 
d="M466 0l-55 134h-254l-53 -134h-59l200 520h80l200 -520h-59zM285 481l-110 -299h219zM169 586v60h66v-60h-66zM335 586v60h66v-60h-66z" />
    <glyph glyph-name="agrave.smcp" horiz-adv-x="570" 
d="M466 0l-55 134h-254l-53 -134h-59l200 520h80l200 -520h-59zM285 481l-110 -299h219zM318 614l-27 -41c-42 22 -86 50 -124 77l29 44c42 -31 82 -56 122 -80z" />
    <glyph glyph-name="amacron.smcp" horiz-adv-x="570" 
d="M466 0l-55 134h-254l-53 -134h-59l200 520h80l200 -520h-59zM285 481l-110 -299h219zM167 587v48h236v-48h-236z" />
    <glyph glyph-name="aogonek.smcp" horiz-adv-x="570" 
d="M525 -192c-18 -10 -38 -15 -64 -15c-44 0 -85 23 -85 76s37 100 90 131l-55 134h-254l-53 -134h-59l200 520h80l200 -520c-55 -38 -98 -76 -98 -127c0 -20 10 -36 41 -36c16 0 29 2 45 8zM285 481l-110 -299h219z" />
    <glyph glyph-name="atilde.smcp" horiz-adv-x="570" 
d="M466 0l-55 134h-254l-53 -134h-59l200 520h80l200 -520h-59zM285 481l-110 -299h219zM293 590c-22 10 -37 18 -56 18c-22 0 -37 -11 -54 -28l-26 29c18 27 50 49 82 49c19 0 32 -6 54 -16c27 -12 41 -18 57 -18c17 0 32 7 48 25l29 -26c-17 -28 -45 -49 -77 -49
c-17 0 -31 4 -57 16z" />
    <glyph glyph-name="aring.smcp" horiz-adv-x="570" 
d="M466 0l-55 134h-254l-53 -134h-59l200 520h80l200 -520h-59zM285 481l-110 -299h219zM348 615c0 -35 -22 -62 -63 -62s-63 27 -63 62c0 36 22 61 63 61s63 -25 63 -61zM314 615c0 20 -9 32 -29 32s-30 -12 -30 -32c0 -19 10 -32 30 -32s29 13 29 32z" />
    <glyph glyph-name="aringacute.smcp" horiz-adv-x="570" 
d="M348 616c0 -35 -22 -62 -63 -62s-63 27 -63 62c0 36 22 61 63 61s63 -25 63 -61zM314 616c0 20 -9 32 -29 32s-30 -12 -30 -32c0 -19 10 -32 30 -32s29 13 29 32zM276 698l-21 33c40 24 57 33 99 64l23 -36c-38 -27 -59 -39 -101 -61zM466 0l-55 134h-254l-53 -134h-59
l200 520h80l200 -520h-59zM285 481l-110 -299h219z" />
    <glyph glyph-name="cacute.smcp" horiz-adv-x="476" 
d="M136 145c0 -80 39 -103 139 -103c36 0 93 4 133 12l8 -49c-44 -10 -101 -15 -142 -15c-142 0 -196 53 -196 151v238c0 98 54 151 196 151c41 0 95 -5 142 -15l-8 -49c-40 8 -97 12 -133 12c-100 0 -139 -23 -139 -103v-230zM230 573l-27 41c40 24 80 49 122 80l29 -44
c-38 -27 -82 -55 -124 -77z" />
    <glyph glyph-name="ccaron.smcp" horiz-adv-x="476" 
d="M136 145c0 -80 39 -103 139 -103c36 0 93 4 133 12l8 -49c-44 -10 -101 -15 -142 -15c-142 0 -196 53 -196 151v238c0 98 54 151 196 151c41 0 95 -5 142 -15l-8 -49c-40 8 -97 12 -133 12c-100 0 -139 -23 -139 -103v-230zM146 650l22 39c42 -22 74 -42 107 -62
c34 20 63 39 107 62l21 -39c-49 -28 -86 -54 -128 -84c-46 32 -87 59 -129 84z" />
    <glyph glyph-name="ccedilla.smcp" horiz-adv-x="476" 
d="M374 -130c0 -44 -33 -77 -95 -77c-28 0 -55 6 -78 14l9 35c18 -5 43 -9 61 -9c41 0 57 12 57 35c0 19 -16 31 -47 31c-18 0 -44 -3 -58 -6l21 98c-120 7 -166 59 -166 150v238c0 98 54 151 196 151c41 0 95 -5 142 -15l-8 -49c-40 8 -97 12 -133 12
c-100 0 -139 -23 -139 -103v-230c0 -80 39 -103 139 -103c36 0 93 4 133 12l8 -49c-40 -9 -91 -14 -130 -15l-13 -60c9 2 20 3 28 3c40 0 73 -20 73 -63z" />
    <glyph glyph-name="ccircumflex.smcp" horiz-adv-x="476" 
d="M136 145c0 -80 39 -103 139 -103c36 0 93 4 133 12l8 -49c-44 -10 -101 -15 -142 -15c-142 0 -196 53 -196 151v238c0 98 54 151 196 151c41 0 95 -5 142 -15l-8 -49c-40 8 -97 12 -133 12c-100 0 -139 -23 -139 -103v-230zM170 566l-22 39c42 26 79 50 125 82
c42 -30 73 -52 124 -82l-21 -39c-47 25 -69 39 -103 60c-33 -20 -61 -38 -103 -60z" />
    <glyph glyph-name="cdotaccent.smcp" horiz-adv-x="476" 
d="M136 145c0 -80 39 -103 139 -103c36 0 93 4 133 12l8 -49c-44 -10 -101 -15 -142 -15c-142 0 -196 53 -196 151v238c0 98 54 151 196 151c41 0 95 -5 142 -15l-8 -49c-40 8 -97 12 -133 12c-100 0 -139 -23 -139 -103v-230zM300 595h-58v107h58v-107z" />
    <glyph glyph-name="dcaron.smcp" horiz-adv-x="541" 
d="M466 155c0 -88 -37 -155 -179 -155h-192v520h192c142 0 179 -67 179 -155v-210zM408 363c0 73 -29 105 -123 105h-132v-416h132c94 0 123 32 123 105v206zM148 650l22 39c42 -22 74 -42 107 -62c34 20 63 39 107 62l21 -39c-49 -28 -86 -54 -128 -84
c-46 32 -87 59 -129 84z" />
    <glyph glyph-name="dcroat.smcp" horiz-adv-x="555" 
d="M45 238v48h64v234h192c142 0 179 -67 179 -155v-210c0 -88 -37 -155 -179 -155h-192v238h-64zM422 363c0 73 -29 105 -123 105h-132v-182h118v-48h-118v-186h132c94 0 123 32 123 105v206z" />
    <glyph glyph-name="eacute.smcp" horiz-adv-x="503" 
d="M95 0v520h332v-52h-274v-169h255v-52h-255v-195h275v-52h-333zM240 573l-27 41c40 24 80 49 122 80l29 -44c-38 -27 -82 -55 -124 -77z" />
    <glyph glyph-name="ebreve.smcp" horiz-adv-x="503" 
d="M95 0v520h332v-52h-274v-169h255v-52h-255v-195h275v-52h-333zM360 671l33 -30c-21 -31 -62 -68 -123 -68s-102 37 -123 68l33 30c22 -30 53 -53 90 -53s68 23 90 53z" />
    <glyph glyph-name="ecaron.smcp" horiz-adv-x="503" 
d="M95 0v520h332v-52h-274v-169h255v-52h-255v-195h275v-52h-333zM143 650l22 39c42 -22 74 -42 107 -62c34 20 63 39 107 62l21 -39c-49 -28 -86 -54 -128 -84c-46 32 -87 59 -129 84z" />
    <glyph glyph-name="ecircumflex.smcp" horiz-adv-x="503" 
d="M95 0v520h332v-52h-274v-169h255v-52h-255v-195h275v-52h-333zM165 566l-22 39c42 26 79 50 125 82c42 -30 73 -52 124 -82l-21 -39c-47 25 -69 39 -103 60c-33 -20 -61 -38 -103 -60z" />
    <glyph glyph-name="edieresis.smcp" horiz-adv-x="503" 
d="M95 0v520h332v-52h-274v-169h255v-52h-255v-195h275v-52h-333zM151 586v60h66v-60h-66zM317 586v60h66v-60h-66z" />
    <glyph glyph-name="edotaccent.smcp" horiz-adv-x="503" 
d="M95 0v520h332v-52h-274v-169h255v-52h-255v-195h275v-52h-333zM299 595h-58v107h58v-107z" />
    <glyph glyph-name="egrave.smcp" horiz-adv-x="503" 
d="M95 0v520h332v-52h-274v-169h255v-52h-255v-195h275v-52h-333zM310 614l-27 -41c-42 22 -86 50 -124 77l29 44c42 -31 82 -56 122 -80z" />
    <glyph glyph-name="emacron.smcp" horiz-adv-x="503" 
d="M95 0v520h332v-52h-274v-169h255v-52h-255v-195h275v-52h-333zM149 587v48h236v-48h-236z" />
    <glyph glyph-name="eng.smcp" horiz-adv-x="598" 
d="M425 0l-274 460v-460h-56v520h78l274 -460v460h56v-555c0 -73 -14 -82 -113 -172l-38 42c83 74 93 80 93 139v26h-20z" />
    <glyph glyph-name="eogonek.smcp" horiz-adv-x="503" 
d="M95 0v520h332v-52h-274v-169h255v-52h-255v-195h275v-52h-55c-55 -38 -98 -76 -98 -127c0 -20 10 -36 41 -36c16 0 29 2 45 8l12 -37c-18 -10 -38 -15 -64 -15c-44 0 -85 23 -85 76s38 100 91 131h-220z" />
    <glyph glyph-name="eth.smcp" horiz-adv-x="555" 
d="M45 238v48h64v234h192c142 0 179 -67 179 -155v-210c0 -88 -37 -155 -179 -155h-192v238h-64zM422 363c0 73 -29 105 -123 105h-132v-182h118v-48h-118v-186h132c94 0 123 32 123 105v206z" />
    <glyph glyph-name="gbreve.smcp" horiz-adv-x="531" 
d="M136 373v-228c0 -75 26 -103 132 -103c36 0 86 3 120 11v181h58v-221c-54 -16 -123 -23 -179 -23c-143 0 -189 52 -189 153v233c0 103 50 154 196 154c49 0 115 -6 161 -18l-7 -50c-49 10 -107 16 -154 16c-109 0 -138 -28 -138 -105zM372 671l33 -30
c-21 -31 -62 -68 -123 -68s-102 37 -123 68l33 30c22 -30 53 -53 90 -53s68 23 90 53z" />
    <glyph glyph-name="gcircumflex.smcp" horiz-adv-x="531" 
d="M136 373v-228c0 -75 26 -103 132 -103c36 0 86 3 120 11v181h58v-221c-54 -16 -123 -23 -179 -23c-143 0 -189 52 -189 153v233c0 103 50 154 196 154c49 0 115 -6 161 -18l-7 -50c-49 10 -107 16 -154 16c-109 0 -138 -28 -138 -105zM179 566l-22 39c42 26 79 50 125 82
c42 -30 73 -52 124 -82l-21 -39c-47 25 -69 39 -103 60c-33 -20 -61 -38 -103 -60z" />
    <glyph glyph-name="gcommaaccent.smcp" horiz-adv-x="531" 
d="M136 373v-228c0 -75 26 -103 132 -103c36 0 86 3 120 11v181h58v-221c-54 -16 -123 -23 -179 -23c-143 0 -189 52 -189 153v233c0 103 50 154 196 154c49 0 115 -6 161 -18l-7 -50c-49 10 -107 16 -154 16c-109 0 -138 -28 -138 -105zM245 -143v86h62v-86l-48 -108
l-28 12l36 96h-22z" />
    <glyph glyph-name="gdotaccent.smcp" horiz-adv-x="531" 
d="M136 373v-228c0 -75 26 -103 132 -103c36 0 86 3 120 11v181h58v-221c-54 -16 -123 -23 -179 -23c-143 0 -189 52 -189 153v233c0 103 50 154 196 154c49 0 115 -6 161 -18l-7 -50c-49 10 -107 16 -154 16c-109 0 -138 -28 -138 -105zM306 595h-58v107h58v-107z" />
    <glyph glyph-name="hbar.smcp" horiz-adv-x="593" 
d="M45 397v42h55v81h58v-81h277v81h58v-81h55v-42h-55v-397h-58v245h-277v-245h-58v397h-55zM158 297h277v100h-277v-100z" />
    <glyph glyph-name="hcircumflex.smcp" horiz-adv-x="583" 
d="M488 0h-58v245h-277v-245h-58v520h58v-223h277v223h58v-520zM189 566l-22 39c42 26 79 50 125 82c42 -30 73 -52 124 -82l-21 -39c-47 25 -69 39 -103 60c-33 -20 -61 -38 -103 -60z" />
    <glyph glyph-name="iacute.smcp" horiz-adv-x="258" 
d="M158 520v-520h-58v520h58zM127 573l-27 41c40 24 80 49 122 80l29 -44c-38 -27 -82 -55 -124 -77z" />
    <glyph glyph-name="ibreve.smcp" horiz-adv-x="258" 
d="M219 671l33 -30c-21 -31 -62 -68 -123 -68s-102 37 -123 68l33 30c22 -30 53 -53 90 -53s68 23 90 53zM158 520v-520h-58v520h58z" />
    <glyph glyph-name="icircumflex.smcp" horiz-adv-x="258" 
d="M158 520v-520h-58v520h58zM27 566l-22 39c42 26 79 50 125 82c42 -30 73 -52 124 -82l-21 -39c-47 25 -69 39 -103 60c-33 -20 -61 -38 -103 -60z" />
    <glyph glyph-name="idieresis.smcp" horiz-adv-x="258" 
d="M158 520v-520h-58v520h58zM13 586v60h66v-60h-66zM179 586v60h66v-60h-66z" />
    <glyph glyph-name="igrave.smcp" horiz-adv-x="258" 
d="M158 520v-520h-58v520h58zM167 614l-27 -41c-42 22 -86 50 -124 77l29 44c42 -31 82 -56 122 -80z" />
    <glyph glyph-name="imacron.smcp" horiz-adv-x="258" 
d="M11 587v48h236v-48h-236zM158 520v-520h-58v520h58z" />
    <glyph glyph-name="iogonek.smcp" horiz-adv-x="258" 
d="M186 -192c-18 -10 -38 -15 -64 -15c-59 0 -84 32 -84 79c0 54 32 97 62 128v520h58v-520c-43 -41 -69 -82 -69 -127c0 -20 9 -36 40 -36c16 0 29 2 45 8z" />
    <glyph glyph-name="itilde.smcp" horiz-adv-x="258" 
d="M137 590c-22 10 -37 18 -56 18c-22 0 -37 -11 -54 -28l-26 29c18 27 50 49 82 49c19 0 32 -6 54 -16c27 -12 41 -18 57 -18c17 0 32 7 48 25l29 -26c-17 -28 -45 -49 -77 -49c-17 0 -31 4 -57 16zM158 520v-520h-58v520h58z" />
    <glyph glyph-name="ij.smcp" horiz-adv-x="501" 
d="M158 520v-520h-58v520h58zM353 520h58v-511c0 -64 -1 -66 -108 -159l-35 39c85 74 85 75 85 115v516z" />
    <glyph glyph-name="jcircumflex.smcp" horiz-adv-x="243" 
d="M95 520h58v-511c0 -64 -1 -66 -108 -159l-35 39c85 74 85 75 85 115v516zM24 566l-22 39c42 26 79 50 125 82c42 -30 73 -52 124 -82l-21 -39c-47 25 -69 39 -103 60c-33 -20 -61 -38 -103 -60z" />
    <glyph glyph-name="kcommaaccent.smcp" 
d="M469 520l-233 -255l249 -265h-73l-244 265l229 255h72zM153 520v-520h-58v520h58zM244 -143v86h62v-86l-48 -108l-28 12l36 96h-22z" />
    <glyph glyph-name="lacute.smcp" horiz-adv-x="463" 
d="M153 520v-468h260v-52h-318v520h58zM128 573l-27 41c40 24 80 49 122 80l29 -44c-38 -27 -82 -55 -124 -77z" />
    <glyph glyph-name="lcaron.smcp" horiz-adv-x="463" 
d="M304 434v86h62v-86l-48 -108l-28 12l36 96h-22zM153 520v-468h260v-52h-318v520h58z" />
    <glyph glyph-name="lcommaaccent.smcp" horiz-adv-x="463" 
d="M153 520v-468h260v-52h-318v520h58zM236 -143v86h62v-86l-48 -108l-28 12l36 96h-22z" />
    <glyph glyph-name="ldot.smcp" horiz-adv-x="463" 
d="M271 215v86h62v-86h-62zM153 520v-468h260v-52h-318v520h58z" />
    <glyph glyph-name="lslash.smcp" horiz-adv-x="487" 
d="M53 195l-23 43l89 49v233h58v-202l145 80l23 -43l-168 -92v-211h260v-52h-318v231z" />
    <glyph glyph-name="nacute.smcp" horiz-adv-x="598" 
d="M425 0l-274 460v-460h-56v520h78l274 -460v460h56v-520h-78zM291 573l-27 41c40 24 80 49 122 80l29 -44c-38 -27 -82 -55 -124 -77z" />
    <glyph glyph-name="ncaron.smcp" horiz-adv-x="598" 
d="M425 0l-274 460v-460h-56v520h78l274 -460v460h56v-520h-78zM183 650l22 39c42 -22 74 -42 107 -62c34 20 63 39 107 62l21 -39c-49 -28 -86 -54 -128 -84c-46 32 -87 59 -129 84z" />
    <glyph glyph-name="ncommaaccent.smcp" horiz-adv-x="598" 
d="M425 0l-274 460v-460h-56v520h78l274 -460v460h56v-520h-78zM261 -143v86h62v-86l-48 -108l-28 12l36 96h-22z" />
    <glyph glyph-name="ntilde.smcp" horiz-adv-x="598" 
d="M425 0l-274 460v-460h-56v520h78l274 -460v460h56v-520h-78zM304 590c-22 10 -37 18 -56 18c-22 0 -37 -11 -54 -28l-26 29c18 27 50 49 82 49c19 0 32 -6 54 -16c27 -12 41 -18 57 -18c17 0 32 7 48 25l29 -26c-17 -28 -45 -49 -77 -49c-17 0 -31 4 -57 16z" />
    <glyph glyph-name="oacute.smcp" horiz-adv-x="568" 
d="M284 -10c-152 0 -206 67 -206 156v228c0 89 54 156 206 156s206 -67 206 -156v-228c0 -89 -54 -156 -206 -156zM432 371c0 70 -40 107 -148 107s-148 -37 -148 -107v-222c0 -70 40 -107 148 -107s148 37 148 107v222zM277 573l-27 41c40 24 80 49 122 80l29 -44
c-38 -27 -82 -55 -124 -77z" />
    <glyph glyph-name="obreve.smcp" horiz-adv-x="568" 
d="M284 -10c-152 0 -206 67 -206 156v228c0 89 54 156 206 156s206 -67 206 -156v-228c0 -89 -54 -156 -206 -156zM432 371c0 70 -40 107 -148 107s-148 -37 -148 -107v-222c0 -70 40 -107 148 -107s148 37 148 107v222zM374 671l33 -30c-21 -31 -62 -68 -123 -68
s-102 37 -123 68l33 30c22 -30 53 -53 90 -53s68 23 90 53z" />
    <glyph glyph-name="ocircumflex.smcp" horiz-adv-x="568" 
d="M284 -10c-152 0 -206 67 -206 156v228c0 89 54 156 206 156s206 -67 206 -156v-228c0 -89 -54 -156 -206 -156zM432 371c0 70 -40 107 -148 107s-148 -37 -148 -107v-222c0 -70 40 -107 148 -107s148 37 148 107v222zM182 566l-22 39c42 26 79 50 125 82
c42 -30 73 -52 124 -82l-21 -39c-47 25 -69 39 -103 60c-33 -20 -61 -38 -103 -60z" />
    <glyph glyph-name="odieresis.smcp" horiz-adv-x="568" 
d="M284 -10c-152 0 -206 67 -206 156v228c0 89 54 156 206 156s206 -67 206 -156v-228c0 -89 -54 -156 -206 -156zM432 371c0 70 -40 107 -148 107s-148 -37 -148 -107v-222c0 -70 40 -107 148 -107s148 37 148 107v222zM168 586v60h66v-60h-66zM334 586v60h66v-60h-66z" />
    <glyph glyph-name="ograve.smcp" horiz-adv-x="568" 
d="M284 -10c-152 0 -206 67 -206 156v228c0 89 54 156 206 156s206 -67 206 -156v-228c0 -89 -54 -156 -206 -156zM432 371c0 70 -40 107 -148 107s-148 -37 -148 -107v-222c0 -70 40 -107 148 -107s148 37 148 107v222zM325 614l-27 -41c-42 22 -86 50 -124 77l29 44
c42 -31 82 -56 122 -80z" />
    <glyph glyph-name="ohungarumlaut.smcp" horiz-adv-x="568" 
d="M284 -10c-152 0 -206 67 -206 156v228c0 89 54 156 206 156s206 -67 206 -156v-228c0 -89 -54 -156 -206 -156zM432 371c0 70 -40 107 -148 107s-148 -37 -148 -107v-222c0 -70 40 -107 148 -107s148 37 148 107v222zM206 565l-32 37c37 30 79 66 119 102l34 -40
c-38 -36 -83 -71 -121 -99zM355 565l-32 38c36 30 79 65 119 102l34 -40c-39 -36 -83 -71 -121 -100z" />
    <glyph glyph-name="omacron.smcp" horiz-adv-x="568" 
d="M284 -10c-152 0 -206 67 -206 156v228c0 89 54 156 206 156s206 -67 206 -156v-228c0 -89 -54 -156 -206 -156zM432 371c0 70 -40 107 -148 107s-148 -37 -148 -107v-222c0 -70 40 -107 148 -107s148 37 148 107v222zM165 587v48h236v-48h-236z" />
    <glyph glyph-name="oslashacute.smcp" horiz-adv-x="568" 
d="M284 -10c-54 0 -96 8 -127 23l-44 -73l-35 21l45 74c-32 28 -45 67 -45 111v228c0 89 54 156 206 156c54 0 95 -8 126 -23l45 73l35 -22l-45 -74c31 -28 45 -66 45 -110v-228c0 -89 -54 -156 -206 -156zM136 149c0 -26 5 -47 17 -64l229 376c-23 11 -55 17 -98 17
c-108 0 -148 -37 -148 -107v-222zM432 371c0 25 -6 46 -18 63l-229 -375c23 -12 56 -17 99 -17c108 0 148 37 148 107v222zM265 573l-27 41c40 24 80 49 122 80l29 -44c-38 -27 -82 -55 -124 -77z" />
    <glyph glyph-name="otilde.smcp" horiz-adv-x="568" 
d="M284 -10c-152 0 -206 67 -206 156v228c0 89 54 156 206 156s206 -67 206 -156v-228c0 -89 -54 -156 -206 -156zM432 371c0 70 -40 107 -148 107s-148 -37 -148 -107v-222c0 -70 40 -107 148 -107s148 37 148 107v222zM289 590c-22 10 -37 18 -56 18
c-22 0 -37 -11 -54 -28l-26 29c18 27 50 49 82 49c19 0 32 -6 54 -16c27 -12 41 -18 57 -18c17 0 32 7 48 25l29 -26c-17 -28 -45 -49 -77 -49c-17 0 -31 4 -57 16z" />
    <glyph glyph-name="racute.smcp" horiz-adv-x="567" 
d="M454 0l-130 187h-10h-161v-187h-58v520h219c117 0 158 -49 158 -123v-87c0 -56 -24 -98 -86 -115l136 -195h-68zM314 239c74 0 100 21 100 74v81c0 53 -26 74 -100 74h-161v-229h161zM261 573l-27 41c40 24 80 49 122 80l29 -44c-38 -27 -82 -55 -124 -77z" />
    <glyph glyph-name="rcaron.smcp" horiz-adv-x="567" 
d="M454 0l-130 187h-10h-161v-187h-58v520h219c117 0 158 -49 158 -123v-87c0 -56 -24 -98 -86 -115l136 -195h-68zM314 239c74 0 100 21 100 74v81c0 53 -26 74 -100 74h-161v-229h161zM152 650l22 39c42 -22 74 -42 107 -62c34 20 63 39 107 62l21 -39
c-49 -28 -86 -54 -128 -84c-46 32 -87 59 -129 84z" />
    <glyph glyph-name="rcommaaccent.smcp" horiz-adv-x="567" 
d="M454 0l-130 187h-10h-161v-187h-58v520h219c117 0 158 -49 158 -123v-87c0 -56 -24 -98 -86 -115l136 -195h-68zM314 239c74 0 100 21 100 74v81c0 53 -26 74 -100 74h-161v-229h161zM267 -143v86h62v-86l-48 -108l-28 12l36 96h-22z" />
    <glyph glyph-name="sacute.smcp" horiz-adv-x="500" 
d="M430 125c0 -91 -38 -135 -179 -135c-52 0 -126 8 -176 26l9 48c54 -15 118 -22 168 -22c96 0 120 17 120 83c0 72 2 74 -127 112c-155 46 -164 64 -164 159c0 102 45 134 186 134c51 0 107 -5 157 -18l-8 -50c-48 11 -103 16 -147 16c-116 0 -130 -11 -130 -84
c0 -67 0 -69 128 -108c156 -48 163 -61 163 -161zM235 573l-27 41c40 24 80 49 122 80l29 -44c-38 -27 -82 -55 -124 -77z" />
    <glyph glyph-name="scaron.smcp" horiz-adv-x="500" 
d="M430 125c0 -91 -38 -135 -179 -135c-52 0 -126 8 -176 26l9 48c54 -15 118 -22 168 -22c96 0 120 17 120 83c0 72 2 74 -127 112c-155 46 -164 64 -164 159c0 102 45 134 186 134c51 0 107 -5 157 -18l-8 -50c-48 11 -103 16 -147 16c-116 0 -130 -11 -130 -84
c0 -67 0 -69 128 -108c156 -48 163 -61 163 -161zM139 650l22 39c42 -22 74 -42 107 -62c34 20 63 39 107 62l21 -39c-49 -28 -86 -54 -128 -84c-46 32 -87 59 -129 84z" />
    <glyph glyph-name="scedilla.smcp" horiz-adv-x="500" 
d="M355 -130c0 -44 -33 -77 -95 -77c-28 0 -55 6 -78 14l9 35c18 -5 43 -9 61 -9c41 0 57 12 57 35c0 19 -16 31 -47 31c-18 0 -44 -3 -58 -6l21 98c-49 2 -108 10 -150 25l9 48c54 -15 118 -22 168 -22c96 0 120 17 120 83c0 72 2 74 -127 112c-155 46 -164 64 -164 159
c0 102 45 134 186 134c51 0 107 -5 157 -18l-8 -50c-48 11 -103 16 -147 16c-116 0 -130 -11 -130 -84c0 -67 0 -69 128 -108c156 -48 163 -61 163 -161c0 -88 -35 -131 -163 -135l-13 -60c9 2 20 3 28 3c40 0 73 -20 73 -63z" />
    <glyph glyph-name="scircumflex.smcp" horiz-adv-x="500" 
d="M430 125c0 -91 -38 -135 -179 -135c-52 0 -126 8 -176 26l9 48c54 -15 118 -22 168 -22c96 0 120 17 120 83c0 72 2 74 -127 112c-155 46 -164 64 -164 159c0 102 45 134 186 134c51 0 107 -5 157 -18l-8 -50c-48 11 -103 16 -147 16c-116 0 -130 -11 -130 -84
c0 -67 0 -69 128 -108c156 -48 163 -61 163 -161zM166 566l-22 39c42 26 79 50 125 82c42 -30 73 -52 124 -82l-21 -39c-47 25 -69 39 -103 60c-33 -20 -61 -38 -103 -60z" />
    <glyph glyph-name="scommaaccent.smcp" horiz-adv-x="500" 
d="M430 125c0 -91 -38 -135 -179 -135c-52 0 -126 8 -176 26l9 48c54 -15 118 -22 168 -22c96 0 120 17 120 83c0 72 2 74 -127 112c-155 46 -164 64 -164 159c0 102 45 134 186 134c51 0 107 -5 157 -18l-8 -50c-48 11 -103 16 -147 16c-116 0 -130 -11 -130 -84
c0 -67 0 -69 128 -108c156 -48 163 -61 163 -161zM227 -143v86h62v-86l-48 -108l-28 12l36 96h-22z" />
    <glyph glyph-name="tbar.smcp" horiz-adv-x="478" 
d="M64 208v42h146v218h-180v52h418v-52h-180v-218h146v-42h-146v-208h-58v208h-146z" />
    <glyph glyph-name="tcaron.smcp" horiz-adv-x="478" 
d="M210 0v468h-180v52h418v-52h-180v-468h-58zM112 650l22 39c42 -22 74 -42 107 -62c34 20 63 39 107 62l21 -39c-49 -28 -86 -54 -128 -84c-46 32 -87 59 -129 84z" />
    <glyph glyph-name="tcommaaccent.smcp" horiz-adv-x="478" 
d="M210 0v468h-180v52h418v-52h-180v-468h-58zM208 -143v86h62v-86l-48 -108l-28 12l36 96h-22z" />
    <glyph glyph-name="thorn.smcp" horiz-adv-x="502" 
d="M299 95h-146v-95h-58v520h58v-90h146c117 0 158 -49 158 -123v-89c0 -74 -41 -123 -158 -123zM299 147c74 0 100 21 100 74v83c0 53 -26 74 -100 74h-146v-231h146z" />
    <glyph glyph-name="uacute.smcp" horiz-adv-x="586" 
d="M438 520h58v-373c0 -89 -56 -157 -203 -157s-203 68 -203 157v373h58v-371c0 -68 40 -107 145 -107s145 39 145 107v371zM282 573l-27 41c40 24 80 49 122 80l29 -44c-38 -27 -82 -55 -124 -77z" />
    <glyph glyph-name="ubreve.smcp" horiz-adv-x="586" 
d="M438 520h58v-373c0 -89 -56 -157 -203 -157s-203 68 -203 157v373h58v-371c0 -68 40 -107 145 -107s145 39 145 107v371zM382 671l33 -30c-21 -31 -62 -68 -123 -68s-102 37 -123 68l33 30c22 -30 53 -53 90 -53s68 23 90 53z" />
    <glyph glyph-name="ucircumflex.smcp" horiz-adv-x="586" 
d="M438 520h58v-373c0 -89 -56 -157 -203 -157s-203 68 -203 157v373h58v-371c0 -68 40 -107 145 -107s145 39 145 107v371zM191 566l-22 39c42 26 79 50 125 82c42 -30 73 -52 124 -82l-21 -39c-47 25 -69 39 -103 60c-33 -20 -61 -38 -103 -60z" />
    <glyph glyph-name="udieresis.smcp" horiz-adv-x="586" 
d="M438 520h58v-373c0 -89 -56 -157 -203 -157s-203 68 -203 157v373h58v-371c0 -68 40 -107 145 -107s145 39 145 107v371zM177 586v60h66v-60h-66zM343 586v60h66v-60h-66z" />
    <glyph glyph-name="ugrave.smcp" horiz-adv-x="586" 
d="M438 520h58v-373c0 -89 -56 -157 -203 -157s-203 68 -203 157v373h58v-371c0 -68 40 -107 145 -107s145 39 145 107v371zM343 614l-27 -41c-42 22 -86 50 -124 77l29 44c42 -31 82 -56 122 -80z" />
    <glyph glyph-name="uhungarumlaut.smcp" horiz-adv-x="586" 
d="M438 520h58v-373c0 -89 -56 -157 -203 -157s-203 68 -203 157v373h58v-371c0 -68 40 -107 145 -107s145 39 145 107v371zM204 565l-32 37c37 30 79 66 119 102l34 -40c-38 -36 -83 -71 -121 -99zM353 565l-32 38c36 30 79 65 119 102l34 -40c-39 -36 -83 -71 -121 -100z
" />
    <glyph glyph-name="umacron.smcp" horiz-adv-x="586" 
d="M438 520h58v-373c0 -89 -56 -157 -203 -157s-203 68 -203 157v373h58v-371c0 -68 40 -107 145 -107s145 39 145 107v371zM175 587v48h236v-48h-236z" />
    <glyph glyph-name="uogonek.smcp" horiz-adv-x="586" 
d="M384 -192c-18 -10 -38 -15 -64 -15c-44 0 -85 23 -85 76c0 48 40 91 93 123c-11 -1 -23 -2 -35 -2c-147 0 -203 68 -203 157v373h58v-371c0 -68 40 -107 145 -107s145 39 145 107v371h58v-373c0 -58 -24 -107 -81 -134c-79 -43 -129 -86 -129 -140c0 -20 10 -36 41 -36
c16 0 29 2 45 8z" />
    <glyph glyph-name="uring.smcp" horiz-adv-x="586" 
d="M438 520h58v-373c0 -89 -56 -157 -203 -157s-203 68 -203 157v373h58v-371c0 -68 40 -107 145 -107s145 39 145 107v371zM356 615c0 -35 -22 -62 -63 -62s-63 27 -63 62c0 36 22 61 63 61s63 -25 63 -61zM322 615c0 20 -9 32 -29 32s-30 -12 -30 -32c0 -19 10 -32 30 -32
s29 13 29 32z" />
    <glyph glyph-name="utilde.smcp" horiz-adv-x="586" 
d="M308 590c-22 10 -37 18 -56 18c-22 0 -37 -11 -54 -28l-26 29c18 27 50 49 82 49c19 0 32 -6 54 -16c27 -12 41 -18 57 -18c17 0 32 7 48 25l29 -26c-17 -28 -45 -49 -77 -49c-17 0 -31 4 -57 16zM438 520h58v-373c0 -89 -56 -157 -203 -157s-203 68 -203 157v373h58
v-371c0 -68 40 -107 145 -107s145 39 145 107v371z" />
    <glyph glyph-name="wacute.smcp" horiz-adv-x="778" 
d="M428 520l127 -472l142 472h56l-159 -520h-79l-126 473l-126 -473h-79l-159 520h56l142 -472l127 472h78zM382 573l-27 41c40 24 80 49 122 80l29 -44c-38 -27 -82 -55 -124 -77z" />
    <glyph glyph-name="wcircumflex.smcp" horiz-adv-x="778" 
d="M428 520l127 -472l142 472h56l-159 -520h-79l-126 473l-126 -473h-79l-159 520h56l142 -472l127 472h78zM287 566l-22 39c42 26 79 50 125 82c42 -30 73 -52 124 -82l-21 -39c-47 25 -69 39 -103 60c-33 -20 -61 -38 -103 -60z" />
    <glyph glyph-name="wdieresis.smcp" horiz-adv-x="778" 
d="M428 520l127 -472l142 472h56l-159 -520h-79l-126 473l-126 -473h-79l-159 520h56l142 -472l127 472h78zM273 586v60h66v-60h-66zM439 586v60h66v-60h-66z" />
    <glyph glyph-name="wgrave.smcp" horiz-adv-x="778" 
d="M428 520l127 -472l142 472h56l-159 -520h-79l-126 473l-126 -473h-79l-159 520h56l142 -472l127 472h78zM420 614l-27 -41c-42 22 -86 50 -124 77l29 44c42 -31 82 -56 122 -80z" />
    <glyph glyph-name="yacute.smcp" horiz-adv-x="498" 
d="M249 212l168 308h61l-200 -361v-159h-58v159l-200 361h61zM241 573l-27 41c40 24 80 49 122 80l29 -44c-38 -27 -82 -55 -124 -77z" />
    <glyph glyph-name="ycircumflex.smcp" horiz-adv-x="498" 
d="M249 212l168 308h61l-200 -361v-159h-58v159l-200 361h61zM147 566l-22 39c42 26 79 50 125 82c42 -30 73 -52 124 -82l-21 -39c-47 25 -69 39 -103 60c-33 -20 -61 -38 -103 -60z" />
    <glyph glyph-name="ydieresis.smcp" horiz-adv-x="498" 
d="M249 212l168 308h61l-200 -361v-159h-58v159l-200 361h61zM133 586v60h66v-60h-66zM299 586v60h66v-60h-66z" />
    <glyph glyph-name="ygrave.smcp" horiz-adv-x="498" 
d="M249 212l168 308h61l-200 -361v-159h-58v159l-200 361h61zM290 614l-27 -41c-42 22 -86 50 -124 77l29 44c42 -31 82 -56 122 -80z" />
    <glyph glyph-name="zacute.smcp" horiz-adv-x="533" 
d="M454 473l-306 -423h310v-50h-378v47l306 423h-304v50h372v-47zM241 573l-27 41c40 24 80 49 122 80l29 -44c-38 -27 -82 -55 -124 -77z" />
    <glyph glyph-name="zcaron.smcp" horiz-adv-x="533" 
d="M454 473l-306 -423h310v-50h-378v47l306 423h-304v50h372v-47zM150 650l22 39c42 -22 74 -42 107 -62c34 20 63 39 107 62l21 -39c-49 -28 -86 -54 -128 -84c-46 32 -87 59 -129 84z" />
    <glyph glyph-name="zdotaccent.smcp" horiz-adv-x="533" 
d="M454 473l-306 -423h310v-50h-378v47l306 423h-304v50h372v-47zM296 595h-58v107h58v-107z" />
    <glyph glyph-name="ornm01.ornm" horiz-adv-x="908" 
d="M838 357v-48h-698l276 -276l-33 -33l-333 333l333 333l33 -33l-276 -276h698z" />
    <glyph glyph-name="ornm02.ornm" horiz-adv-x="908" 
d="M70 309v48h698l-276 276l33 33l333 -333l-333 -333l-33 33l276 276h-698z" />
    <glyph glyph-name="ornm03.ornm" horiz-adv-x="735" 
d="M670 125l-34 -34l-494 494v-390h-47v471h471v-47h-390z" />
    <glyph glyph-name="ornm04.ornm" horiz-adv-x="735" 
d="M99 91l-34 34l494 494h-390v47h471v-471h-47v390z" />
    <glyph glyph-name="ornm05.ornm" horiz-adv-x="735" 
d="M636 575l34 -34l-494 -494h390v-47h-471v471h47v-390z" />
    <glyph glyph-name="ornm06.ornm" horiz-adv-x="735" 
d="M65 541l34 34l494 -494v390h47v-471h-471v47h390z" />
    <glyph glyph-name="ornm07.ornm" horiz-adv-x="776" 
d="M412 -197h-48v773l-276 -276l-33 33l333 333l333 -333l-33 -33l-276 276v-773z" />
    <glyph glyph-name="ornm08.ornm" horiz-adv-x="776" 
d="M364 666h48v-773l276 276l33 -33l-333 -333l-333 333l33 33l276 -276v773z" />
    <glyph glyph-name="ornm09.ornm" horiz-adv-x="941" 
d="M871 357v-47h-546v47h546zM416 33l-33 -33l-333 333l333 333l33 -33l-300 -300z" />
    <glyph glyph-name="ornm10.ornm" horiz-adv-x="941" 
d="M70 310v47h546v-47h-546zM558 0l-33 33l300 300l-300 300l33 33l333 -333z" />
    <glyph glyph-name="ornm11.ornm" horiz-adv-x="758" 
d="M693 102l-34 -33l-386 386l34 33zM142 195h-47v471h471v-47h-424v-424z" />
    <glyph glyph-name="ornm12.ornm" horiz-adv-x="758" 
d="M99 69l-34 33l386 386l34 -33zM663 195h-47v424h-424v47h471v-471z" />
    <glyph glyph-name="ornm13.ornm" horiz-adv-x="758" 
d="M659 597l34 -33l-386 -386l-34 33zM95 471h47v-424h424v-47h-471v471z" />
    <glyph glyph-name="ornm14.ornm" horiz-adv-x="758" 
d="M65 564l34 33l386 -386l-34 -33zM616 471h47v-471h-471v47h424v424z" />
    <glyph glyph-name="ornm15.ornm" horiz-adv-x="776" 
d="M412 -197h-47v598h47v-598zM88 310l-33 33l333 333l333 -333l-33 -33l-300 300z" />
    <glyph glyph-name="ornm16.ornm" horiz-adv-x="776" 
d="M365 666h47v-588h-47v588zM55 136l33 33l300 -300l300 300l33 -33l-333 -333z" />
    <glyph glyph-name="ornm17.ornm" horiz-adv-x="700" 
d="M630 357v-48h-500l190 -190l-33 -33l-247 247l247 247l33 -33l-190 -190h500z" />
    <glyph glyph-name="ornm18.ornm" horiz-adv-x="700" 
d="M70 309v48h500l-190 190l33 33l247 -247l-247 -247l-33 33l190 190h-500z" />
    <glyph glyph-name="ornm19.ornm" horiz-adv-x="585" 
d="M520 265l-34 -34l-354 354v-269h-47v350h350v-47h-269z" />
    <glyph glyph-name="ornm20.ornm" horiz-adv-x="585" 
d="M99 231l-34 34l354 354h-269v47h350v-350h-47v269z" />
    <glyph glyph-name="ornm21.ornm" horiz-adv-x="585" 
d="M486 435l34 -34l-354 -354h269v-47h-350v350h47v-269z" />
    <glyph glyph-name="ornm22.ornm" horiz-adv-x="585" 
d="M65 401l34 34l354 -354v269h47v-350h-350v47h269z" />
    <glyph glyph-name="ornm23.ornm" horiz-adv-x="604" 
d="M326 0h-48v586l-190 -190l-33 33l247 247l247 -247l-33 -33l-190 190v-586z" />
    <glyph glyph-name="ornm24.ornm" horiz-adv-x="604" 
d="M278 666h48v-586l190 190l33 -33l-247 -247l-247 247l33 33l190 -190v586z" />
    <glyph glyph-name="ornm25.ornm" horiz-adv-x="702" 
d="M320 119l-33 -33l-247 247l247 247l33 -33l-214 -214zM632 357v-47h-359v47h359z" />
    <glyph glyph-name="ornm26.ornm" horiz-adv-x="702" 
d="M415 86l-33 33l214 214l-214 214l33 33l247 -247zM70 310v47h359v-47h-359z" />
    <glyph glyph-name="ornm27.ornm" horiz-adv-x="585" 
d="M131 317h-46v349h349v-46h-303v-303zM520 265l-33 -34l-254 254l33 34z" />
    <glyph glyph-name="ornm28.ornm" horiz-adv-x="585" 
d="M500 317h-46v303h-303v46h349v-349zM98 231l-33 34l254 254l33 -34z" />
    <glyph glyph-name="ornm29.ornm" horiz-adv-x="585" 
d="M85 349h46v-303h303v-46h-349v349zM487 435l33 -34l-254 -254l-33 34z" />
    <glyph glyph-name="ornm30.ornm" horiz-adv-x="585" 
d="M454 349h46v-349h-349v46h303v303zM65 401l33 34l254 -254l-33 -34z" />
    <glyph glyph-name="ornm31.ornm" horiz-adv-x="604" 
d="M88 396l-33 33l247 247l247 -247l-33 -33l-214 214zM326 0h-47v443h47v-443z" />
    <glyph glyph-name="ornm32.ornm" horiz-adv-x="604" 
d="M55 237l33 33l214 -214l214 214l33 -33l-247 -247zM279 666h47v-443h-47v443z" />
    <glyph glyph-name="ornm33.ornm" horiz-adv-x="786" 
d="M50 333c0 189 154 343 343 343s343 -154 343 -343s-154 -343 -343 -343s-343 154 -343 343zM184 333l209 -209l33 33l-152 152h333v48h-333l152 152l-33 33z" />
    <glyph glyph-name="ornm34.ornm" horiz-adv-x="786" 
d="M736 333c0 -189 -154 -343 -343 -343s-343 154 -343 343s154 343 343 343s343 -154 343 -343zM393 124l209 209l-209 209l-33 -33l152 -152h-333v-48h333l-152 -152z" />
    <glyph glyph-name="ornm35.ornm" horiz-adv-x="786" 
d="M50 333c0 189 154 343 343 343s343 -154 343 -343s-154 -343 -343 -343s-343 154 -343 343zM248 482v-295h46v215l236 -236l34 34l-236 236h215v46h-295z" />
    <glyph glyph-name="ornm36.ornm" horiz-adv-x="786" 
d="M736 333c0 -189 -154 -343 -343 -343s-343 154 -343 343s154 343 343 343s343 -154 343 -343zM538 187v295h-295v-46h215l-236 -236l34 -34l236 236v-215h46z" />
    <glyph glyph-name="ornm37.ornm" horiz-adv-x="786" 
d="M50 333c0 189 154 343 343 343s343 -154 343 -343s-154 -343 -343 -343s-343 154 -343 343zM248 482v-295h295v46h-215l236 236l-34 34l-236 -236v215h-46z" />
    <glyph glyph-name="ornm38.ornm" horiz-adv-x="786" 
d="M736 333c0 -189 -154 -343 -343 -343s-343 154 -343 343s154 343 343 343s343 -154 343 -343zM538 187v295h-46v-215l-236 236l-34 -34l236 -236h-215v-46h295z" />
    <glyph glyph-name="ornm39.ornm" horiz-adv-x="786" 
d="M393 676c189 0 343 -154 343 -343s-154 -343 -343 -343s-343 154 -343 343s154 343 343 343zM393 550l-209 -209l33 -33l152 152v-333h48v333l152 -152l33 33z" />
    <glyph glyph-name="ornm40.ornm" horiz-adv-x="786" 
d="M393 -10c-189 0 -343 154 -343 343s154 343 343 343s343 -154 343 -343s-154 -343 -343 -343zM184 325l209 -209l209 209l-33 33l-152 -152v333h-48v-333l-152 152z" />
    <glyph glyph-name="ornm41.ornm" horiz-adv-x="786" 
d="M50 333c0 189 154 343 343 343s343 -154 343 -343s-154 -343 -343 -343s-343 154 -343 343zM390 124l33 33l-176 176l176 176l-33 33l-209 -209zM614 310v47h-256v-47h256z" />
    <glyph glyph-name="ornm42.ornm" horiz-adv-x="786" 
d="M736 333c0 -189 -154 -343 -343 -343s-343 154 -343 343s154 343 343 343s343 -154 343 -343zM363 157l33 -33l209 209l-209 209l-33 -33l176 -176zM172 357v-47h256v47h-256z" />
    <glyph glyph-name="ornm43.ornm" horiz-adv-x="786" 
d="M50 333c0 189 154 343 343 343s343 -154 343 -343s-154 -343 -343 -343s-343 154 -343 343zM242 200h47v249h249v47h-296v-296zM532 173l33 34l-181 181l-33 -34z" />
    <glyph glyph-name="ornm44.ornm" horiz-adv-x="786" 
d="M736 333c0 -189 -154 -343 -343 -343s-343 154 -343 343s154 343 343 343s343 -154 343 -343zM497 200h47v296h-296v-47h249v-249zM221 207l33 -34l181 181l-33 34z" />
    <glyph glyph-name="ornm45.ornm" horiz-adv-x="786" 
d="M50 333c0 189 154 343 343 343s343 -154 343 -343s-154 -343 -343 -343s-343 154 -343 343zM294 480h-47v-296h296v47h-249v249zM570 473l-33 34l-181 -181l33 -34z" />
    <glyph glyph-name="ornm46.ornm" horiz-adv-x="786" 
d="M736 333c0 -189 -154 -343 -343 -343s-343 154 -343 343s154 343 343 343s343 -154 343 -343zM539 480h-47v-249h-249v-47h296v296zM249 507l-33 -34l181 -181l33 34z" />
    <glyph glyph-name="ornm47.ornm" horiz-adv-x="786" 
d="M393 676c189 0 343 -154 343 -343s-154 -343 -343 -343s-343 154 -343 343s154 343 343 343zM184 346l33 -33l176 176l176 -176l33 33l-209 209zM370 122h47v256h-47v-256z" />
    <glyph glyph-name="ornm48.ornm" horiz-adv-x="786" 
d="M393 -10c-189 0 -343 154 -343 343s154 343 343 343s343 -154 343 -343s-154 -343 -343 -343zM217 353l-33 -33l209 -209l209 209l-33 33l-176 -176zM417 544h-47v-256h47v256z" />
    <glyph glyph-name="ornm49.ornm" horiz-adv-x="786" 
d="M50 333c0 189 154 343 343 343s343 -154 343 -343s-154 -343 -343 -343s-343 154 -343 343zM220 193l33 -34l140 141l140 -141l33 34l-140 140l140 140l-33 33l-140 -140l-140 140l-33 -33l140 -140z" />
    <glyph glyph-name="ornm50.ornm" horiz-adv-x="786" 
d="M50 333c0 189 154 343 343 343s343 -154 343 -343s-154 -343 -343 -343s-343 154 -343 343zM533 159l33 34l-140 140l-33 -33zM220 193l33 -34l140 141l-33 33zM426 333l140 140l-33 33l-140 -140zM253 506l-33 -33l140 -140l33 33z" />
    <glyph glyph-name="ornm51.ornm" horiz-adv-x="786" 
d="M50 333c0 189 154 343 343 343s343 -154 343 -343s-154 -343 -343 -343s-343 154 -343 343zM173 356v-46h197v-198h46v198h198v46h-198v198h-46v-198h-197z" />
    <glyph glyph-name="ornm52.ornm" horiz-adv-x="786" 
d="M50 333c0 189 154 343 343 343s343 -154 343 -343s-154 -343 -343 -343s-343 154 -343 343zM370 356h46v198h-46v-198zM416 310h-46v-198h46v198zM416 356v-46h198v46h-198zM370 310v46h-197v-46h197z" />
    <glyph glyph-name="ornm53.ornm" horiz-adv-x="806" 
d="M35 333l686 343v-686z" />
    <glyph glyph-name="ornm54.ornm" horiz-adv-x="806" 
d="M85 676l686 -343l-686 -343v686z" />
    <glyph glyph-name="ornm55.ornm" horiz-adv-x="805" 
d="M678 607l-555 -274l555 -274v548zM35 333l685 343v-686z" />
    <glyph glyph-name="ornm56.ornm" horiz-adv-x="805" 
d="M682 333l-555 274v-548zM85 676l685 -343l-685 -343v686z" />
    <glyph glyph-name="ornm57.ornm" horiz-adv-x="622" 
d="M537 -11l-502 254l502 254v-508z" />
    <glyph glyph-name="ornm58.ornm" horiz-adv-x="622" 
d="M587 243l-502 -254v508z" />
    <glyph glyph-name="ornm59.ornm" horiz-adv-x="622" 
d="M116 243l382 -191v381zM537 -11l-502 254l502 254v-508z" />
    <glyph glyph-name="ornm60.ornm" horiz-adv-x="622" 
d="M124 52l382 191l-382 190v-381zM587 243l-502 -254v508z" />
    <glyph glyph-name="ornm61.ornm" horiz-adv-x="786" 
d="M393 676l338 -676h-676z" />
    <glyph glyph-name="ornm62.ornm" horiz-adv-x="786" 
d="M731 666l-338 -676l-338 676h676z" />
    <glyph glyph-name="ornm63.ornm" horiz-adv-x="785" 
d="M663 42l-270 540l-271 -540h541zM393 676l337 -676h-675z" />
    <glyph glyph-name="ornm64.ornm" horiz-adv-x="785" 
d="M393 84l270 540h-541zM730 666l-337 -676l-338 676h675z" />
    <glyph glyph-name="ornm65.ornm" horiz-adv-x="607" 
d="M303 497l249 -497h-497z" />
    <glyph glyph-name="ornm66.ornm" horiz-adv-x="607" 
d="M552 487l-249 -497l-248 497h497z" />
    <glyph glyph-name="ornm67.ornm" horiz-adv-x="607" 
d="M489 39l-185 373l-186 -373h371zM303 497l249 -497h-497z" />
    <glyph glyph-name="ornm68.ornm" horiz-adv-x="607" 
d="M304 75l185 373h-371zM552 487l-249 -497l-248 497h497z" />
    <glyph glyph-name="ornm69.ornm" horiz-adv-x="856" 
d="M95 0v666h666v-666h-666z" />
    <glyph glyph-name="ornm70.ornm" horiz-adv-x="856" 
d="M140 621v-576h576v576h-576zM95 0v666h666v-666h-666z" />
    <glyph glyph-name="ornm71.ornm" horiz-adv-x="677" 
d="M95 0v487h487v-487h-487z" />
    <glyph glyph-name="ornm72.ornm" horiz-adv-x="677" 
d="M137 445v-403h403v403h-403zM95 0v487h487v-487h-487z" />
    <glyph glyph-name="ornm73.ornm" horiz-adv-x="856" 
d="M95 0v666h666v-666h-666zM687 45l-547 546v-546h547zM716 621h-546l546 -545v545z" />
    <glyph glyph-name="ornm74.ornm" horiz-adv-x="677" 
d="M95 0v487h487v-487h-487zM511 42l-374 374v-374h374zM540 445h-374l374 -374v374z" />
    </font>
</defs>
</svg>
